游客您好
第三方账号登陆
  • 点击联系客服

    在线时间:9:00-18:00

    客服QQ

    1371333023

    电子邮件

    lanniao@1080pro.net
  • 烧友之家APP

    随时掌握烧友资讯

  • 扫描二维码

    关注微信公众号

推荐阅读
蓝鸟
未知星球 | 未知职业
  • 关注0
  • 粉丝2
  • 帖子95610
精选帖子
开启左侧

避难所就位 4k Shelter.in.Place.2021.2160p.WEB-DL.x265.10bit.SDR.DD5.1-4k电影下载—7.77 GB

[复制链接]
蓝鸟 发表于 2021-9-14 12:23:02 | 显示全部楼层 |阅读模式 打印 上一主题 下一主题
避难所就位
上映时间:2021年
类型:剧情 惊悚 恐怖 悬疑 
地区:美国 
导演:马丁·康纳 / 克里斯·贝洛迪
主演:布伦丹·海因斯 / 塔蒂安娜·马尔贾诺维奇 / 凯文·丹尼尔斯 / 杰伊·雷诺兹 / 奥拉·卡明斯卡
画质标准:4K SDR  封装音轨:Dolby TrueHD 5.1 Dolby Atmos 
豆瓣评分:5.1分

加入蓝光高清网,轻松下载最新4k资源

您需要 登录 才可以下载或查看,没有帐号?立即注册

x
简       介
1 \8 T. n# R1 |7 E+ i& ^' l* d
6 w$ C9 J" N9 Y0 \! J$ Q: g

- M+ k6 F9 x  S: }  m" m) C% J  当全球大流行的病毒限制了旅行的可能性时,一对蜜月情侣被困在好莱坞罗斯福酒店,那里有两名员工在照料他们。当紧张局势在强制封锁中升级时,很明显,在这家历史悠久的酒店里,人们担心的不仅仅是机舱热。
) s0 }- b/ o, ^3 r+ R/ d
& }5 k$ {' C# f7 p% g* E* b

7 l2 [8 s8 J6 z' ^' G  V影片参数
1 P/ z& r4 g# l+ v; j% ~- I/ k1 g
避难所就位4k Shelter.in.Place.2021.2160p.WEB-DL.x265.10bit.SDR.DD5.1-4k电影信息! X- y, c" P8 u1 D  ^6 U  o
Video5 J9 I% S( M/ o  q( O
ID : 1
% K8 A9 ~" \1 j4 p# VFormat : HEVC
1 X, q' M( j( M9 VFormat/Info : High Efficiency Video Coding+ u2 a. K6 f$ g# U/ h, c
Format profile : Main 10@L5@High: s; q7 k: K( y
Codec ID : V_MPEGH/ISO/HEVC6 Z. Y3 {  [6 F( P5 C5 [4 j
Duration : 1 h 29 min
+ O1 I2 ~$ ?0 GBit rate : 12.1 Mb/s% u- J# Y' ~- R
Width : 3 840 pixels+ @+ S7 Q% j' c1 N1 c5 u
Height : 1 608 pixels4 ^' T" n( V  i. P' x; H
Display aspect ratio : 2.40:1: m6 F4 E! n1 O5 G" _
Frame rate mode : Constant3 x2 n, F3 p, n: |6 a/ h
Frame rate : 23.976 FPS' ]) y" P( J5 c: l5 d; W
Color space : YUV, q: V' Y- i: z. K
Chroma subsampling : 4:2:0
! ~. {* l+ g2 I' y/ xBit depth : 10 bits
3 \8 ]" Y) @' I& bBits/(Pixel*Frame) : 0.082
" p/ n$ [' ^; O# w9 Y9 qStream size : 7.53 GiB (97%)
1 V1 \$ |" S2 \0 T+ s; K0 l: GLanguage : English6 ^% ~3 S7 C! S
Default : Yes, B) q* A9 p9 K) |0 t. z- [
Forced : No; s2 |' n3 C# k1 _+ m6 Q
Color range : Limited
4 {" V' J$ H0 ]5 hColor primaries : BT.709
/ _0 b5 U& k( b- E9 B" E1 cTransfer characteristics : BT.709! R8 ^/ r6 A7 M/ X
Matrix coefficients : BT.7097 h, ]+ R; i+ T4 m( z" S

1 `6 h0 m" p5 V: w5 R
: s: h2 M. J  R6 Y
Audio5 \) {" K  m; I/ R' D$ R8 |
ID : 2  N# ~' G5 B2 }3 i1 C9 r( C, p3 C
Format : AC-3. [9 l" G$ g, D3 I' r
Format/Info : Audio Coding 31 K0 P  |1 Z  r& w3 l# U" Y
Commercial name : Dolby Digital. q1 j6 K3 e0 g
Codec ID : A_AC3& @) J0 H# C6 f% V  T8 g
Duration : 1 h 29 min
- {! G6 b% r/ Q& {Bit rate mode : Constant
& y* z+ {' B# S, T  `. D! Q+ m% FBit rate : 384 kb/s
6 _* _: L7 G# ~" ?  YChannel(s) : 6 channels, ]& X1 o+ d. j/ ]
Channel layout : L R C LFE Ls Rs
6 }- _6 H0 ]3 `Sampling rate : 48.0 kHz2 U" p3 w- G" a; N
Frame rate : 31.250 FPS (1536 SPF)
: G* e3 N% _- UCompression mode : Lossy
/ {6 C+ W* u- aStream size : 245 MiB (3%)
4 e' S7 m, o7 a- A7 {Title : English
, Q. \6 [. f3 _& r) MLanguage : English/ w* l& z5 ]. `4 q
Service kind : Complete Main5 w- l0 G% i5 W, e
Default : No
5 q' O9 u0 J! I% k2 j! d& N1 rForced : No
' t5 T4 Q$ d9 o5 i
# p+ g4 `) O* p* U+ ~8 I

8 z4 l$ O7 I. N# g) e' H- @Text( Y) j  Y) ^1 ?
ID : 35 h, O* W! ]/ s1 d
Format : UTF-8
2 M1 i0 N. F- d4 \" {5 D9 X( ACodec ID : S_TEXT/UTF8
. f+ Z: M6 d. N, p) L* a/ ~7 KCodec ID/Info : UTF-8 Plain Text; |; F5 `, k. O
Duration : 1 h 24 min, V- j& K4 d; h$ ^' \
Bit rate : 39 b/s
* }8 u8 w8 |. q" {: BCount of elements : 902
1 U. a* `# E6 Q% G8 [: VStream size : 24.1 KiB (0%)
: z2 }4 W4 x6 d0 \Language : English
( ~9 h( p4 B  g6 ]Default : Yes- H9 N& f$ h6 l- J
Forced : No
4 l2 r# |4 N- Y3 B0 j
! S+ Y0 y) F6 b5 e4 i
蓝光高清网提示您  点击下方附件名称  马上开始下载
1 r- H& ]  ^$ I( L* q1 i9 i. M  l8 Q! s+ C7 c0 P: y! a

" l6 H2 a" ~2 N- z+ Q1 s; F避难所就位4k Shelter.in.Place.2021.2160p.WEB-DL.x265.10bit.SDR.DD5.1-4k电影下载
& u' N+ _  H, o1 a9 b5 f$ r# ]5 V' Y* ?  X
避难所就位4k Shelter.in.Place.2021.2160p.WEB-DL.x265.10bit.SDR.DD5.1【4k 2160p SDR 7.77 GB】
9 S" m) @. o4 G  P; R 避难所就位4k Shelter.in.Place.2021.2160p.WEB-DL.x265.10bit.SDR.DD5.1-NOGRP.torrent (文件大小:20.07 KB)
加入蓝光高清网VIP会员  无限制下载本站所有资源---点这里

资源下载、资源播放、字幕使用、无法下载等常见问题---点这里
回复

使用道具 举报

您需要登录后才可以回帖 登录 | 立即注册

本版积分规则

烧友之家(蓝光高清网)本站内容部分由用户自主分享和转载自互联网,转载目的在于传递更多信息,并不代表本网赞同其观点和对其真实性负责。 如有侵权、违反国家法律政策行为,请联系我们,我们会第一时间及时清除和处理!
蓝光高清网 综合资讯平台
关注我们
  • 官方微信公众号
  • 扫码下载官方APP

X3.4 Licensed© 2001-2013 蓝光高清网 烧友之家APP |网站地图