游客您好
第三方账号登陆
  • 点击联系客服

    在线时间:9:00-18:00

    客服QQ

    1371333023

    电子邮件

    lanniao@1080pro.net
  • 烧友之家APP

    随时掌握烧友资讯

  • 扫描二维码

    关注微信公众号

推荐阅读
蓝鸟
未知星球 | 未知职业
  • 关注0
  • 粉丝2
  • 帖子95610
精选帖子
开启左侧

What.She.Said.2021.2160p.WEB-DL.x265.10bit.SDR.AAC2.0-4k电影下载—8.52 GB

[复制链接]
蓝鸟 发表于 2021-9-14 12:28:55 | 显示全部楼层 |阅读模式 打印 上一主题 下一主题
What.She.Said
上映时间:2021年
类型:剧情 
地区:美国 
导演:Amy Northup
主演:珍妮莱斯特朱莉安娜·尤雷纳斯布里特·迈克尔·戈登
画质标准:4K SDR  封装音轨:LPCM 
豆瓣评分:

加入蓝光高清网,轻松下载最新4k资源

您需要 登录 才可以下载或查看,没有帐号?立即注册

x
简       介
9 c5 P# z% ]8 z0 f: L# ?5 T. @3 s7 X" z
+ P8 A  T: ~) g2 e2 b! W7 N1 @0 r- A
       当山姆决定放弃对强奸犯的指控时,她的朋友和兄弟姐妹聚集在一起进行感恩节干预。
; m. ?1 N6 }" |( o1 q8 o# v$ u! B0 }  r% c/ z8 q4 R/ e
3 u: B( Y+ V7 [9 R$ z
影片参数
0 y( a0 E/ t7 x, a* n5 j
What.She.Said.2021.2160p.WEB-DL.x265.10bit.SDR.AAC2.0-4k电影信息
  a5 ~9 {5 q2 C: m0 dVideo+ v# q# ^' H& R$ Y' {1 k
ID : 1' u- g2 ?; l& ]
Format : HEVC
4 J1 r" S1 a% b# A0 r7 \: VFormat/Info : High Efficiency Video Coding. I* g3 ~" E/ E1 Q3 L
Format profile : Main 10@L5@High
3 \/ ]6 h& ~" c* y4 hCodec ID : V_MPEGH/ISO/HEVC
3 f4 e: d0 ~- v  ]! r% kDuration : 1 h 39 min
: n2 [6 h; m4 ^0 _$ g6 b* sBit rate : 12.1 Mb/s$ c9 t9 B! a& S' S7 Q+ f# e
Width : 3 840 pixels6 W7 U- X" M: j5 I, Q! F
Height : 1 570 pixels
4 t3 A8 Q0 S: d: s+ K$ n/ {8 Z1 `& S( EDisplay aspect ratio : 2.40:13 h! C, k4 H, g( C* P8 f& Q
Frame rate mode : Constant
; X  ?6 M: q" O+ s3 |3 QFrame rate : 23.976 FPS
% e, G, X" t6 B+ I7 F/ SColor space : YUV
# w/ U& r8 r* |" ]$ T& M: I$ G) zChroma subsampling : 4:2:0% k1 [1 I7 F  z! E
Bit depth : 10 bits, u' A1 V& T# e8 Q+ Y, x
Bits/(Pixel*Frame) : 0.083
% f/ n* m3 j# p$ oStream size : 8.41 GiB (99%)# a) ~6 ]- k8 M! D: I6 `. N" O
Language : English% c) \8 n6 T1 p% f  J1 d6 [
Default : Yes
4 s6 w' H  U: c. g* N: DForced : No
$ S' B: ]$ c* b. f* a+ WColor range : Limited
2 O" @- ]+ x7 x, ^0 V! e$ d  I% C- ]Color primaries : BT.7097 w4 b, o( I% q% ~9 M% C
Transfer characteristics : BT.709, r; S# j" W+ u, h$ n
Matrix coefficients : BT.709
. X8 q0 x! x& B* Z6 d: p( ^& D- n
1 d& x9 j' p' g( [  @! a9 f

' \/ ?9 R) D7 \% o# @2 I5 h2 WAudio
7 \0 o5 i! T  Z2 ^9 T. U' }- x6 LID : 21 s6 z' V8 W5 f% y
Format : AAC LC0 E; R: s. g7 p* u1 x
Format/Info : Advanced Audio Codec Low Complexity
9 r9 n4 |9 T$ T( \1 U( [$ _- YCodec ID : A_AAC-2
8 I3 z  R5 g9 C- c* ?Duration : 1 h 39 min2 n+ z0 g. B6 q; \
Bit rate : 152 kb/s
4 Z( E: p! _9 h& E' U) IChannel(s) : 2 channels' J4 I' i& ^. G$ S, s( ~
Channel layout : L R
. X: m! k2 ~( _! c  w; D  USampling rate : 48.0 kHz
* N  ?* H7 m( E1 J2 d% d7 B6 @) |- zFrame rate : 46.875 FPS (1024 SPF)
) s' X0 `& f8 s; m! `Compression mode : Lossy
+ z" `% i9 Z- u5 |/ |& X8 MStream size : 108 MiB (1%)
% @3 _! ~- A% k( U2 V6 ~6 ATitle : English# D* Q6 q$ c$ U3 G* [
Language : English/ p( T# G3 f. S  X
Default : No
8 v( j! r; N$ U2 xForced : No
5 \8 o5 O' ^2 N. n. o. B7 n6 R: l( w# x% n. k% \

5 I5 {/ Z. |) n) u- }Text/ a/ s3 v6 Q4 U' l, R. B
ID : 3
% i$ e9 J5 X+ P* x. M5 V* uFormat : UTF-8
( _# T4 u5 q) U5 g! RCodec ID : S_TEXT/UTF8) ^9 V% f. o5 ~, P
Codec ID/Info : UTF-8 Plain Text
$ `- y/ T+ G6 }! S; v5 ~" MDuration : 1 h 34 min! m& L& Z# c/ Y1 c" }0 C, q& I
Bit rate : 71 b/s- }& a2 g# i* ~5 E
Count of elements : 1479
8 g. F% A7 g  d) GStream size : 49.2 KiB (0%)
6 F! u0 f- U" K% ~Language : English
' K- R/ @9 b5 H9 e0 R) HDefault : Yes9 G' w2 g; S+ R$ V
Forced : No
, \, X0 A- X! C5 y3 d3 B2 u
& g8 |4 x) R9 x9 w, b
蓝光高清网提示您  点击下方附件名称  马上开始下载  P. P4 b$ Z* M) H$ B$ R, j- m
5 D. E) o0 F- S+ ]% {; D

/ ]0 |6 C! J+ ~) o- `What.She.Said.2021.2160p.WEB-DL.x265.10bit.SDR.AAC2.0-4k电影下载
! s0 W3 i. j# E8 C) G/ L% E( V5 k4 o4 _1 T" Y
/ W  G# [% v9 v
What.She.Said.2021.2160p.WEB-DL.x265.10bit.SDR.AAC2.0【8.52 GB 】( o! w4 h7 [5 i0 X

, O4 O0 E( P8 r3 X1 Q What.She.Said.2021.2160p.WEB-DL.x265.10bit.SDR.AAC2.0-NOGRP.torrent (文件大小:21.92 KB)
加入蓝光高清网VIP会员  无限制下载本站所有资源---点这里

资源下载、资源播放、字幕使用、无法下载等常见问题---点这里
回复

使用道具 举报

精彩评论1

ggang1 发表于 2021-9-14 14:22:46 | 显示全部楼层
感謝無私分享
回复 支持 反对

使用道具 举报

您需要登录后才可以回帖 登录 | 立即注册

本版积分规则

烧友之家(蓝光高清网)本站内容部分由用户自主分享和转载自互联网,转载目的在于传递更多信息,并不代表本网赞同其观点和对其真实性负责。 如有侵权、违反国家法律政策行为,请联系我们,我们会第一时间及时清除和处理!
蓝光高清网 综合资讯平台
关注我们
  • 官方微信公众号
  • 扫码下载官方APP

X3.4 Licensed© 2001-2013 蓝光高清网 烧友之家APP |网站地图