游客您好
第三方账号登陆
  • 点击联系客服

    在线时间:9:00-18:00

    客服QQ

    1371333023

    电子邮件

    lanniao@1080pro.net
  • 烧友之家APP

    随时掌握烧友资讯

  • 扫描二维码

    关注微信公众号

推荐阅读
蓝鸟
未知星球 | 未知职业
  • 关注0
  • 粉丝2
  • 帖子95610
精选帖子
开启左侧

[4K高清美剧] 重拾人生/重返人生 第二季4k Back.to.Life.S02.2160p.WEBRip.DD5.1.x265-4k美剧下载—17.17 GB

[复制链接]
蓝鸟 发表于 2021-9-14 12:32:57 | 显示全部楼层 |阅读模式 打印 上一主题 下一主题
重返人生

状态:第二季(完结)
上映时间:2021-09-13
类型:喜剧 剧情 
地区:美国
导演:Christopher Sweeney
主演:黛西·海格达
画质标准:4K(3840x2160) 封装音轨:MKV 音轨编码:其他DD
豆瓣评分:8.1分
剧情简介
  广受好评的系列《复生》(6x30')由黛西·哈格德(黑镜,叔叔)创作并主演,哈格德和佩里耶奖得主劳拉·索伦(办公室圣诞派对)共同编写,已被委托制作第二个系列BBC Three 和 Showtime,与 All3Media International 合作。
  该系列由屡获殊荣的制作公司两兄弟影业(Fleabag、Baptiste、Liar、The Missing)制作,与 BBC 3 和 Showtime Networks 联合制作,黛西·哈格德(Daisy Haggard)重新扮演米里·马特森(Miri Matteson)的角色。
  第一个系列被《卫报》描述为“黑暗喜剧宝石”,于 2019 年 4 月在 BBC 3 台首播,详细介绍了 Miri Matterson 回到她海边的家中,她因在成长期间犯下的罪行而入狱 18 年。在外面度过的最初几周之后,美里现在是一个坚定但天真的成年人,她试图将过去抛在脑后,以过上正常的生活。
  第二季由喜剧部总监 Shane Allen 和 BBC 3 部总监 Fiona Campbell 以及 Showtime Networks Inc. 娱乐部总裁 Gary Levine 和 Jana Winograde 委托制作。
  Daisy Haggard 说:“Laura 和我很高兴 Showtime 和 BBC 给了我们继续美里故事的机会。还有很多事情要说,我们非常感谢有机会做到这一点!”
  两兄弟影业的作家兼董事总经理哈里·威廉姆斯说:“《回归生活》收到的反响令人惊叹。黛西和劳拉是罕见的作家,可以让你同时笑和哭——这是一种美妙的品质。我们迫不及待地想让粉丝们看看他们这次为美里准备了什么。”
  BBC 喜剧部主管凯特·道顿 (Kate Daughton) 表示:“BBC Three 的工作是支持下一波雄心勃勃且才华横溢的作家。我们已经与黛西和劳拉达成了金牌。Back To Life 立即受到了这里的观众的欢迎,很高兴看到他们独特的英国声音也在国际上取得成功。”
  Back To Life 由 Daisy Haggard 创建、编写和执行制作。该系列将由两兄弟影业公司出品,哈利和杰克威廉姆斯以及莎拉哈蒙德出品。合著者劳拉·索伦 (Laura Solon) 也将执行制作。BBC 的委托编辑是 Kate Daughton....

加入蓝光高清网,轻松下载最新4k资源

您需要 登录 才可以下载或查看,没有帐号?立即注册

x
影片参数
重拾人生/重返人生 第二季4k Back.to.Life.S02.2160p.WEBRip.DD5.1.x265-4k美剧信息
Video
ID : 1
Format : HEVC
Format/Info : High Efficiency Video Coding
Format profile : Main@L5@Main
Codec ID : V_MPEGH/ISO/HEVC
Duration : 28 min 20 s
Bit rate : 14.5 Mb/s
Width : 3 840 pixels
Height : 2 160 pixels
Display aspect ratio : 16:9
Frame rate mode : Constant
Frame rate : 25.000 FPS
Color space : YUV
Chroma subsampling : 4:2:0
Bit depth : 8 bits
Bits/(Pixel*Frame) : 0.070
Stream size : 2.87 GiB (95%)
Writing library : x265 3.5hy:[Linux][GCC 7.5.0][64 bit] 8bit
Encoding settings : cpuid=1111039 / frame-threads=2 / wpp / no-pmode / no-pme / no-psnr / no-ssim / log-level=2 / input-csp=1 / input-res=3840x2160 / interlace=0 / total-frames=0 / level-idc=0 / high-tier=1 / uhd-bd=0 / ref=4 / no-allow-non-conformance / repeat-headers / annexb / aud / hrd / info / hash=0 / no-temporal-layers / no-open-gop / min-keyint=48 / keyint=48 / gop-lookahead=0 / bframes=4 / b-adapt=2 / b-pyramid / bframe-bias=0 / rc-lookahead=48 / lookahead-slices=4 / scenecut=0 / hist-scenecut=0 / radl=0 / no-splice / no-intra-refresh / ctu=64 / min-cu-size=8 / rect / no-amp / max-tu-size=32 / tu-inter-depth=1 / tu-intra-depth=1 / limit-tu=0 / rdoq-level=2 / dynamic-rd=0.00 / no-ssim-rd / signhide / no-tskip / nr-intra=100 / nr-inter=200 / no-constrained-intra / strong-intra-smoothing / max-merge=3 / limit-refs=3 / limit-modes / me=3 / subme=3 / merange=57 / temporal-mvp / no-frame-dup / no-hme / weightp / no-weightb / no-analyze-src-pics / deblock=0:0 / no-sao / no-sao-non-deblock / rd=4 / selective-sao=0 / no-early-skip / no-rskip / no-fast-intra / no-tskip-fast / no-cu-lossless / no-b-intra / no-splitrd-skip / rdpenalty=0 / psy-rd=0.00 / psy-rdoq=10.00 / no-rd-refine / no-lossless / cbqpoffs=0 / crqpoffs=0 / rc=abr / bitrate=15000 / qcomp=0.60 / qpstep=1 / stats-write=0 / stats-read=2 / cplxblur=20.0 / qblur=0.5 / vbv-maxrate=18000 / vbv-bufsize=12000 / vbv-init=0.6 / min-vbv-fullness=50.0 / max-vbv-fullness=80.0 / vbv-end=0.6 / vbv-end-fr-adj=0.0 / ipratio=1.10 / pbratio=1.00 / aq-mode=0 / aq-strength=0.00 / no-cutree / zone-count=0 / no-strict-cbr / qg-size=32 / rc-grain / qpmax=69 / qpmin=0 / const-vbv / sar=0 / overscan=0 / videoformat=5 / range=0 / colorprim=1 / transfer=1 / colormatrix=1 / chromaloc=0 / display-window=0 / cll=0,0 / min-luma=0 / max-luma=255 / log2-max-poc-lsb=8 / vui-timing-info / vui-hrd-info / no-concatenation / slices=1 / no-opt-qp-pps / no-opt-ref-list-length-pps / no-multi-pass-opt-rps / scenecut-bias=0.05 / hist-threshold=0.03 / no-opt-cu-delta-qp / no-aq-motion / no-hdr10 / no-hdr10-opt / no-dhdr10-opt / no-idr-recovery-sei / analysis-reuse-level=0 / analysis-save-reuse-level=0 / analysis-load-reuse-level=0 / scale-factor=0 / refine-intra=0 / refine-inter=0 / refine-mv=1 / refine-ctu-distortion=0 / no-limit-sao / ctu-info=0 / no-lowpass-dct / refine-analysis-type=0 / copy-pic=1 / max-ausize-factor=1.0 / no-dynamic-refine / no-single-sei / no-hevc-aq / no-svt / no-field / qp-adaptation-range=1.00 / scenecut-aware-qp=0conformance-window-offsets / right=0 / bottom=0 / decoder-max-rate=0 / no-vbv-live-multi-pass
Default : Yes
Forced : No
Color range : Limited
Color primaries : BT.709
Transfer characteristics : BT.709
Matrix coefficients : BT.709


Audio
ID : 2
Format : AC-3
Format/Info : Audio Coding 3
Commercial name : Dolby Digital
Codec ID : A_AC3
Duration : 28 min 20 s
Bit rate mode : Constant
Bit rate : 384 kb/s
Channel(s) : 6 channels
Channel layout : L R C LFE Ls Rs
Sampling rate : 48.0 kHz
Frame rate : 31.250 FPS (1536 SPF)
Compression mode : Lossy
Stream size : 77.8 MiB (3%)
Language : English
Service kind : Complete Main
Default : Yes
Forced : No


Text
ID : 3
Format : UTF-8
Codec ID : S_TEXT/UTF8
Codec ID/Info : UTF-8 Plain Text
Title : English
Language : English
Default : No
Forced : No


蓝光高清网提示您  点击下方附件名称  马上开始下载


重拾人生/重返人生 第二季4k Back.to.Life.S02.2160p.WEBRip.DD5.1.x265-4k美剧下载


重返人生 第二季4k Back.to.Life.S02.2160p.WEBRip.DD5.1.x265【17.17 GB】

重返人生 第二季4k Back.to.Life.S02.2160p.WEBRip.DD5.1.x265-GGEZ.torrent (文件大小:22.44 KB)
加入蓝光高清网VIP会员  无限制下载本站所有资源---点这里

资源下载、资源播放、字幕使用、无法下载等常见问题---点这里
回复

使用道具 举报

您需要登录后才可以回帖 登录 | 立即注册

本版积分规则

烧友之家(蓝光高清网)本站内容部分由用户自主分享和转载自互联网,转载目的在于传递更多信息,并不代表本网赞同其观点和对其真实性负责。 如有侵权、违反国家法律政策行为,请联系我们,我们会第一时间及时清除和处理!
蓝光高清网 综合资讯平台
关注我们
  • 官方微信公众号
  • 扫码下载官方APP

X3.4 Licensed© 2001-2013 蓝光高清网 烧友之家APP |网站地图