游客您好
第三方账号登陆
  • 点击联系客服

    在线时间:9:00-18:00

    客服QQ

    1371333023

    电子邮件

    lanniao@1080pro.net
  • 烧友之家APP

    随时掌握烧友资讯

  • 扫描二维码

    关注微信公众号

推荐阅读
蓝鸟
未知星球 | 未知职业
  • 关注0
  • 粉丝2
  • 帖子95610
精选帖子
开启左侧

在一起 4K.Together.2021.2160p.WEB-DL.x265.10bit.HDR.DD5.1-4k电影下载—9.51 GB

[复制链接]
蓝鸟 发表于 2021-9-14 17:41:45 | 显示全部楼层 |阅读模式 打印 上一主题 下一主题
在一起
上映时间:2021年
类型:剧情 
地区:英国 
导演:史蒂芬·戴德利 / Justin Martin
主演:詹姆斯·麦卡沃伊 / 莎朗·豪根 / Samuel Logan
画质标准:4K HDR  封装音轨:Dolby TrueHD 5.1 Dolby Atmos 
豆瓣评分:

加入蓝光高清网,轻松下载最新4k资源

您需要 登录 才可以下载或查看,没有帐号?立即注册

x
简       介
" d) O; a& a% r* W6 U. c7 N  z
" k! I. Z3 q1 a) \
; x. ?+ I" o, j8 D  Z9 W
  讲述一对因疫情封城而隔离在家的夫妻,开始重新审视自己以及两人的关系。- \3 e+ _4 [) A' M; u. h* A

3 ~0 s$ G/ k1 Y) t: S+ p

7 _: i2 D& H" I6 J, Y影片参数
0 p- a" x/ J: t% ?
在一起4K.Together.2021.2160p.WEB-DL.x265.10bit.HDR.DD5.1-4k电影信息
- d# V* D! e' ~Video7 i& o2 E, s' A' Q) n& N4 d: C
ID : 12 d0 A+ C3 d7 v% U$ Q
Format : HEVC
5 L" o# w9 F' CFormat/Info : High Efficiency Video Coding) H  H3 F0 Y7 x
Format profile : Main 10@L5@High
( R: F$ b% K* K9 N/ c! }$ @HDR format : SMPTE ST 2086, HDR10 compatible; ?5 A1 S. E5 l
Codec ID : V_MPEGH/ISO/HEVC9 o* `3 M' e! J
Duration : 1 h 32 min
) n6 \# T. }% f' P3 Z! U: w8 FBit rate : 14.4 Mb/s$ f: M/ ]& `6 r) _
Width : 3 836 pixels
. D& X* N1 k/ W. |# ]/ B; t7 oHeight : 1 920 pixels
" X; A; n- p/ \Display aspect ratio : 1.998* k, U7 H! i& v4 N: e
Frame rate mode : Constant
& K- ?/ y2 w+ q$ m2 U9 O1 b& UFrame rate : 23.976 FPS
# h6 E: r% S* YColor space : YUV% T+ o8 H% ]  m" W2 h! l# v
Chroma subsampling : 4:2:0 (Type 2)
7 r4 h1 P' c5 O6 \( ]  PBit depth : 10 bits) A& q- ?1 ^& r% l# S$ \3 l' [
Bits/(Pixel*Frame) : 0.081' x) i1 i- Z) L+ I; n
Stream size : 9.26 GiB (97%)
# ^$ m1 v; j! k6 Z: eDefault : Yes, P1 E8 X6 q6 U" s6 U5 c$ J& R- Z
Forced : No; ]4 O# Y% E# J6 m1 _4 ^
Color range : Limited
+ O& x8 A5 {, ^. aColor primaries : BT.2020
2 x5 d3 L4 y# v% KTransfer characteristics : PQ
* E0 Y( q! b. b4 c( oMatrix coefficients : BT.2020 non-constant
' i) c3 f4 _- {1 F* @# A! \Mastering display color primaries : Display P3
, F+ f( U& f8 r0 b0 h# K& d* V$ p4 [Mastering display luminance : min: 0.0050 cd/m2, max: 1000 cd/m2
/ P- K  ]' u% B/ P- e! m6 K* |Maximum Content Light Level : 336 cd/m2
& o. C* V3 x3 W+ V) HMaximum Frame-Average Light Level : 992 cd/m2
  y  m& K6 U$ H$ b% p5 q$ f( T2 w
5 T9 k6 F2 z& C# j

* x( b2 H( {) V: {/ j- IAudio
+ S( D; K) L3 q9 O# V- PID : 2
  n1 o. k' f* bFormat : AC-3* z5 j0 a7 T; j1 K- `$ r) l# i
Format/Info : Audio Coding 3
/ X) s3 T3 d8 \0 g1 e7 g& J" nCommercial name : Dolby Digital9 ]% p7 d3 [7 S! L9 }( x
Codec ID : A_AC3
4 T: N  z; h6 q3 uDuration : 1 h 32 min1 P6 W6 N; [4 A
Bit rate mode : Constant
. V0 x% J9 V/ ^2 a8 g; A' B4 [Bit rate : 384 kb/s. z& G( t5 q' \* D; d! F/ N0 \
Channel(s) : 6 channels
& I6 s1 C6 r' C7 ZChannel layout : L R C LFE Ls Rs  @- k) Y# k+ o" j( L9 U" @
Sampling rate : 48.0 kHz0 k! g/ O/ g# q6 O! s
Frame rate : 31.250 FPS (1536 SPF)+ w# i' F& i9 v  ~" B# R
Compression mode : Lossy7 {9 ?& ]1 M" X- Z% v  F2 ^! c
Stream size : 253 MiB (3%)6 r* C6 R+ v& _# x5 G: W( O% ~
Title : British English3 l% F2 B) x! D. `
Language : English( J4 w; Z0 K9 ?+ G( Q3 D4 N$ g5 N
Service kind : Complete Main
0 S4 c  n6 w* T' c/ a5 A8 ~Default : Yes" q# O6 P, T6 j# F7 [( A
Forced : No: r4 e* R# j1 R- I
' g4 Y0 q) D% H8 A
& l" i3 ^0 u* F. v
Text #14 S. U! E( Q4 F8 Y
ID : 3
+ ]8 @" n' G1 H: N+ L: GFormat : UTF-8
" z& g& w* T$ K+ ~  \! H8 f& n( i7 CCodec ID : S_TEXT/UTF8
1 c0 x, b2 r8 U' T. z5 j, xCodec ID/Info : UTF-8 Plain Text) S1 E/ t& N/ z' }4 m
Duration : 1 h 29 min
5 d  Y$ s" B8 wBit rate : 103 b/s
: {( `  U5 C* t- T! y5 C& QCount of elements : 1981
# u$ n& t: ^0 P* kStream size : 67.7 KiB (0%)
6 M, l$ ~9 R# S2 P* o1 |Language : English
. N" I  O) u' e  w# U4 SDefault : Yes" D8 F  y  @; I) O& G& k4 g- J
Forced : No
" u# k1 `) B& h# m0 O# l3 j2 @, G( r- H7 R, b$ G0 p0 L% ^

9 g9 s. f, ?% k8 _+ X1 bText #2
5 b1 T  f" U/ r% XID : 48 s9 w' {8 H% ~8 O* D" ^
Format : UTF-8
5 g0 a& ]4 u  V( I/ UCodec ID : S_TEXT/UTF82 p# B+ i6 Y& F/ |5 C( D
Codec ID/Info : UTF-8 Plain Text! a$ z. g* H- a& z
Duration : 1 h 29 min" z; U$ N1 d3 r. y" M! q/ s0 a
Bit rate : 79 b/s+ Y* J; E0 h9 u% G
Count of elements : 1570
/ t9 j9 c9 k" t) G; EStream size : 51.7 KiB (0%)
! N! ?/ u7 {* s7 ZTitle : Spanish! i$ R3 P. a8 }7 k
Language : Spanish6 b# _' c' O8 m) z
Default : No
$ U! D7 ]: p0 W4 b9 f' tForced : No
( r0 j* f7 \- y, `( J8 Y2 V- T( @
9 M; _  f3 C3 j7 ^# X# L3 _& S
蓝光高清网提示您  点击下方附件名称  马上开始下载
: K3 d3 n9 U, G$ ]5 b* T; b, E- [( J& _6 U

* @, `) Z5 g( u) V" I- [! j2 g多版本下载时请注意区分
# Z2 f6 W0 l+ u6 S0 ^( ?& e1 g0 z$ K& h! x

9 h3 }( d7 c- Z. r2 G* G: h在一起4K.Together.2021.2160p.WEB-DL.x265.10bit.HDR.DD5.1-4K电影下载7 z  r8 P- ?# }* }( r

( w) K5 E/ v5 v4 I& ^' ^在一起4K.Together.2021.2160p.WEB-DL.x265.10bit.HDR.DD5.1【9.51 GB】: u6 i, @; i& x
在一起4K.Together.2021.2160p.WEB-DL.x265.10bit.HDR.DD5.1-NOGRP.torrent (文件大小:24.41 KB)
加入蓝光高清网VIP会员  无限制下载本站所有资源---点这里

资源下载、资源播放、字幕使用、无法下载等常见问题---点这里
回复

使用道具 举报

精彩评论8

zwh2008手机认证 发表于 2021-9-15 14:33:27 | 显示全部楼层
谢谢分享!!!
回复

使用道具 举报

JANNE手机认证 发表于 2021-9-16 01:13:01 | 显示全部楼层
- h' F- b$ R  g, B7 N
谢谢分享!!!
回复

使用道具 举报

JANNE手机认证 发表于 2021-9-16 01:13:14 | 显示全部楼层
( S7 J# W) Y& N9 k) z" Y4 ?
谢谢分享!!!
回复

使用道具 举报

JANNE手机认证 发表于 2021-9-16 01:13:23 | 显示全部楼层

* q' U" \! z- i谢谢分享!!!
; m5 A9 x0 }9 G+ s1 P8 m谢谢分享!!!3 n/ s3 A# d- H; F7 X/ _
谢谢分享!!!: ^1 c8 z$ f0 J0 H/ x$ `
谢谢分享!!!
, u$ l* R. i; q谢谢分享!!!
回复 支持 反对

使用道具 举报

Anndiy520手机认证 发表于 2021-9-16 08:33:17 来自手机 | 显示全部楼层
谢谢分享
回复

使用道具 举报

ggang1 发表于 2021-9-16 12:09:36 | 显示全部楼层
谢楼主发帖,前排顶起
回复 支持 反对

使用道具 举报

1223456手机认证 发表于 2021-9-17 04:52:06 | 显示全部楼层
谢谢楼主的分享
回复 支持 反对

使用道具 举报

ggang1 发表于 2021-9-17 11:32:43 | 显示全部楼层
8 M& S. w5 W& P  C* l* `# i
谢楼主发帖,顶起
回复 支持 反对

使用道具 举报

您需要登录后才可以回帖 登录 | 立即注册

本版积分规则

烧友之家(蓝光高清网)本站内容部分由用户自主分享和转载自互联网,转载目的在于传递更多信息,并不代表本网赞同其观点和对其真实性负责。 如有侵权、违反国家法律政策行为,请联系我们,我们会第一时间及时清除和处理!
蓝光高清网 综合资讯平台
关注我们
  • 官方微信公众号
  • 扫码下载官方APP

X3.4 Licensed© 2001-2013 蓝光高清网 烧友之家APP |网站地图