游客您好
第三方账号登陆
  • 点击联系客服

    在线时间:9:00-18:00

    客服QQ

    1371333023

    电子邮件

    lanniao@1080pro.net
  • 烧友之家APP

    随时掌握烧友资讯

  • 扫描二维码

    关注微信公众号

推荐阅读
蓝鸟
未知星球 | 未知职业
  • 关注0
  • 粉丝2
  • 帖子95610
精选帖子
开启左侧

[4K高清美剧] Y染色体:世界上最后一个男人/Y染色体4k Y.The.Last.Man.S01.2160p.HULU.WEBRip.DDP5.1.x265美剧下载—6.06 GB

[复制链接]
蓝鸟 发表于 2021-9-15 09:01:27 | 显示全部楼层 |阅读模式 打印 上一主题 下一主题
Y染色体:世界上最后一个男人

状态:第一季(更新至第3集 共10集)
上映时间:2021-09-13
类型:动作 剧情 科幻 奇幻 冒险 
地区:美国
导演:梅丽娜·马苏卡斯
主演:戴安·琳恩 / 本·施耐泽 / 阿什利·罗曼斯 / 奥莉薇·瑟尔比 / Quincy Kirkwood
画质标准:4K(3840x2160) 封装音轨:MKV 音轨编码:其他DD
豆瓣评分:6.9分
剧情简介
  该剧改编自DC同名漫画书,故事背景设置在末日世界,一场大灾难导致男主之外的男性全部消亡,新世界的一切均由女性主宰。戴安·琳恩、巴里·基奥根饰一对母子。试播集导演梅丽娜·马苏卡斯《无为大师》....

加入蓝光高清网,轻松下载最新4k资源

您需要 登录 才可以下载或查看,没有帐号?立即注册

x
影片参数
Y / Y染色体:世界上最后一个男人/Y染色体4k Y.The.Last.Man.S01E01.2160p.HULU.WEBRip.DDP5.1.x265美剧信息
Video
ID : 1
Format : HEVC
Format/Info : High Efficiency Video Coding
Format profile : Main 10@L5.1@Main
Codec ID : V_MPEGH/ISO/HEVC
Duration : 54 min 26 s
Bit rate : 15.7 Mb/s
Width : 3 840 pixels
Height : 2 160 pixels
Display aspect ratio : 16:9
Frame rate mode : Constant
Frame rate : 23.976 (24000/1001) FPS
Color space : YUV
Chroma subsampling : 4:2:0
Bit depth : 10 bits
Bits/(Pixel*Frame) : 0.079
Stream size : 5.96 GiB (98%)
Default : Yes
Forced : No


Audio
ID : 2
Format : E-AC-3
Format/Info : Enhanced AC-3
Commercial name : Dolby Digital Plus
Codec ID : A_EAC3
Duration : 54 min 26 s
Bit rate mode : Constant
Bit rate : 256 kb/s
Channel(s) : 6 channels
Channel layout : L R C LFE Ls Rs
Sampling rate : 48.0 kHz
Frame rate : 31.250 FPS (1536 SPF)
Compression mode : Lossy
Stream size : 99.7 MiB (2%)
Language : English
Service kind : Complete Main
Default : Yes
Forced : No


Text #1
ID : 3
Format : UTF-8
Codec ID : S_TEXT/UTF8
Codec ID/Info : UTF-8 Plain Text
Duration : 52 min 22 s
Bit rate : 67 b/s
Count of elements : 873
Stream size : 26.0 KiB (0%)
Language : English
Default : No
Forced : No


Text #2
ID : 4
Format : UTF-8
Codec ID : S_TEXT/UTF8
Codec ID/Info : UTF-8 Plain Text
Duration : 54 min 13 s
Bit rate : 75 b/s
Count of elements : 1029
Stream size : 29.8 KiB (0%)
Title : SDH
Language : English
Default : No
Forced : No


Menu
00:15:12.013 : Chapter 01
00:24:52.017 : Chapter 02
00:31:53.017 : Chapter 03
00:43:56.010 : Chapter 04
00:53:25.014 : Credits


蓝光高清网提示您  点击下方附件名称  马上开始下载


Y / Y染色体:世界上最后一个男人/Y染色体4k Y.The.Last.Man.S01E01.2160p.HULU.WEBRip.DDP5.1.x265美剧下载


Y染色体4k Y.The.Last.Man.S01E01.2160p.HULU.WEBRip.DDP5.1.x265【6.06 GB】
Y染色体4k Y.The.Last.Man.S01E01.2160p.HULU.WEBRip.DDP5.1.x265-XiBiU.torrent (文件大小:15.79 KB)
加入蓝光高清网VIP会员  无限制下载本站所有资源---点这里

资源下载、资源播放、字幕使用、无法下载等常见问题---点这里
回复

使用道具 举报

精彩评论2

ggang1 发表于 2021-9-15 10:21:49 | 显示全部楼层
谢楼主发帖,顶起
回复 支持 反对

使用道具 举报

梦游一生手机认证 发表于 2021-9-17 13:57:17 来自手机 | 显示全部楼层
回复 支持 反对

使用道具 举报

您需要登录后才可以回帖 登录 | 立即注册

本版积分规则

烧友之家(蓝光高清网)本站内容部分由用户自主分享和转载自互联网,转载目的在于传递更多信息,并不代表本网赞同其观点和对其真实性负责。 如有侵权、违反国家法律政策行为,请联系我们,我们会第一时间及时清除和处理!
蓝光高清网 综合资讯平台
关注我们
  • 官方微信公众号
  • 扫码下载官方APP

X3.4 Licensed© 2001-2013 蓝光高清网 烧友之家APP |网站地图