游客您好
第三方账号登陆
  • 点击联系客服

    在线时间:9:00-18:00

    客服QQ

    1371333023

    电子邮件

    lanniao@1080pro.net
  • 烧友之家APP

    随时掌握烧友资讯

  • 扫描二维码

    关注微信公众号

推荐阅读
蓝鸟
未知星球 | 未知职业
  • 关注0
  • 粉丝2
  • 帖子95610
精选帖子
开启左侧

[喜剧] 宝贝老板2/宝贝老板:家大业大 The.Boss.Baby.Family.Business.2021.1080p.BluRay.x264-PiGNUS 8.78GB

[复制链接]
蓝鸟 发表于 2021-9-15 09:28:28 | 显示全部楼层 |阅读模式 打印 上一主题 下一主题

加入蓝光高清网,轻松下载最新4k资源

您需要 登录 才可以下载或查看,没有帐号?立即注册

x
image.png

◎译  名 宝贝老板2/宝贝老板:家大业大(台)/宝贝老板2:家族企业/波士BB 2世祖(港)
◎片  名 The Boss Baby: Family Business
◎年  代 2021
◎产  地 美国
◎类  别 喜剧 / 动画
◎语  言 英语
◎上映日期 2021-07-02(美国/美国网络)
◎豆瓣评分 6.7/10 from 5845 users
◎豆瓣链接 https://movie.douban.com/subject/27056396/
◎片  长 107分钟
◎导  演 汤姆·麦格拉思 Tom McGrath
◎编  剧 玛拉·弗雷齐 Marla Frazee / 迈克尔·麦库勒斯 Michael McCullers
◎主  演 亚历克·鲍德温 Alec Baldwin
       詹姆斯·麦斯登 James Marsden
       艾米·塞德丽丝 Amy Sedaris
       阿丽亚娜·格林布拉特 Ariana Greenblatt
       杰夫·高布伦 Jeff Goldblum
       伊娃·朗格利亚 Eva Longoria
       詹姆斯·麦格拉思 James McGrath
       吉米·坎摩尔 Jimmy Kimmel
       丽莎·库卓 Lisa Kudrow
       拉斐尔·亚历杭德罗 Raphael Alejandro
       塞雷妮蒂·瑞恩·布朗 Serenity Reign Brown
       大卫·索伦 David Soren
       詹姆斯·雷恩 James Ryan
       戴维·P·史密斯 David P. Smith
       汤姆·麦格拉思 Tom McGrath
       沃尔特·道恩 Walt Dohrn
       阿普里尔·劳伦斯 April Lawrence
       迈尔斯·克里斯托弗·巴克什 Miles Christopher Bakshi
       琳娜·泽格 Lynnanne Zager
◎标  签 动画 | 喜剧 | 美国 | 搞笑 | 小宝宝 | 兄弟 | 萌 | 卖萌
◎简  介


  设定在首部多年之后,邓普顿兄弟蒂姆和泰德长大成人,两人关系也逐渐疏远。蒂姆已婚已育,泰德是对冲基金的首席执行官,两人将因为一个有着先进方式和积极进取态度的新任“宝贝老板”重新联系在一起,激发出新的家族企业。
  
  蒂姆和有“超级妈妈”之称的妻子卡罗尔及异常聪慧的7岁女儿塔比莎、刚出生超级可爱的婴儿蒂娜住在郊区,塔比莎是一所有威望的教育机构的尖子生,将叔叔泰德视为偶像,想成为他那样的人,但蒂姆担心她太过用功,导致无法过一个正常的童年。当蒂娜作为宝贝集团最高机密特工的真实身份曝光,目的是为了揭开塔比莎学校及其神秘创始人阿姆斯特朗博士背后的黑暗秘密时,邓普顿兄弟将以一种意想不到的方式重聚,两人重新审视家庭的意义,明白什么才是最重要的。
  1. Video
  2. ID                                       : 1
  3. Format                                   : AVC
  4. Format/Info                              : Advanced Video Codec
  5. Format profile                           : [email protected]
  6. Format settings                          : CABAC / 5 Ref Frames
  7. Format settings, CABAC                   : Yes
  8. Format settings, Reference frames        : 5 frames
  9. Codec ID                                 : V_MPEG4/ISO/AVC
  10. Duration                                 : 1 h 47 min
  11. Bit rate                                 : 7 822 kb/s
  12. Width                                    : 1 920 pixels
  13. Height                                   : 804 pixels
  14. Display aspect ratio                     : 2.40:1
  15. Frame rate mode                          : Constant
  16. Frame rate                               : 23.976 (24000/1001/189150) FPS
  17. Color space                              : YUV
  18. Chroma subsampling                       : 4:2:0
  19. Bit depth                                : 8 bits
  20. Scan type                                : Progressive
  21. Bits/(Pixel*Frame)                       : 0.211
  22. Stream size                              : 5.86 GiB (67%)
  23. Writing library                          : x264 core 164 r3065 ae03d92
  24. Encoding settings                        : cabac=1 / ref=5 / deblock=1:1:1 / analyse=0x3:0x133 / me=umh / subme=9 / psy=1 / psy_rd=0.40:0.00 / mixed_ref=1 / me_range=16 / chroma_me=1 / trellis=2 / 8x8dct=1 / cqm=0 / deadzone=21,11 / fast_pskip=1 / chroma_qp_offset=-2 / threads=25 / lookahead_threads=2 / sliced_threads=0 / nr=0 / decimate=1 / interlaced=0 / bluray_compat=0 / constrained_intra=0 / bframes=5 / b_pyramid=2 / b_adapt=2 / b_bias=0 / direct=3 / weightb=1 / open_gop=0 / weightp=2 / keyint=250 / keyint_min=23 / scenecut=40 / intra_refresh=0 / rc_lookahead=60 / rc=crf / mbtree=1 / crf=15.5 / qcomp=0.60 / qpmin=0 / qpmax=69 / qpstep=4 / ip_ratio=1.40 / aq=1:0.60
  25. Default                                  : Yes
  26. Forced                                   : No

  27. Audio #1
  28. ID                                       : 2
  29. Format                                   : MLP FBA 16-ch
  30. Format/Info                              : Meridian Lossless Packing FBA with 16-channel presentation
  31. Commercial name                          : Dolby TrueHD with Dolby Atmos
  32. Codec ID                                 : A_TRUEHD
  33. Duration                                 : 1 h 47 min
  34. Bit rate mode                            : Variable
  35. Bit rate                                 : 3 200 kb/s
  36. Maximum bit rate                         : 5 106 kb/s
  37. Channel(s)                               : 8 channels
  38. Channel layout                           : L R C LFE Ls Rs Lb Rb
  39. Sampling rate                            : 48.0 kHz
  40. Frame rate                               : 1 200.000 FPS (40 SPF)
  41. Compression mode                         : Lossless
  42. Stream size                              : 2.40 GiB (27%)
  43. Language                                 : English
  44. Default                                  : Yes
  45. Forced                                   : No
  46. Number of dynamic objects                : 11
  47. Bed channel count                        : 1 channel
  48. Bed channel configuration                : LFE

  49. Audio #2
  50. ID                                       : 3
  51. Format                                   : AC-3
  52. Format/Info                              : Audio Coding 3
  53. Commercial name                          : Dolby Digital
  54. Codec ID                                 : A_AC3
  55. Duration                                 : 1 h 47 min
  56. Bit rate mode                            : Constant
  57. Bit rate                                 : 448 kb/s
  58. Channel(s)                               : 6 channels
  59. Channel layout                           : L R C LFE Ls Rs
  60. Sampling rate                            : 48.0 kHz
  61. Frame rate                               : 31.250 FPS (1536 SPF)
  62. Compression mode                         : Lossy
  63. Stream size                              : 344 MiB (4%)
  64. Language                                 : English
  65. Service kind                             : Complete Main
  66. Default                                  : Yes
  67. Forced                                   : No

  68. Audio #3
  69. ID                                       : 4
  70. Format                                   : AAC LC
  71. Format/Info                              : Advanced Audio Codec Low Complexity
  72. Codec ID                                 : A_AAC-2
  73. Duration                                 : 1 h 47 min
  74. Bit rate                                 : 102 kb/s
  75. Channel(s)                               : 2 channels
  76. Channel layout                           : L R
  77. Sampling rate                            : 48.0 kHz
  78. Frame rate                               : 46.875 FPS (1024 SPF)
  79. Compression mode                         : Lossy
  80. Delay relative to video                  : 9 ms
  81. Stream size                              : 78.4 MiB (1%)
  82. Title                                    : Commentary
  83. Language                                 : English
  84. Default                                  : Yes
  85. Forced                                   : No

  86. Text #1
  87. ID                                       : 5
  88. Format                                   : PGS
  89. Muxing mode                              : zlib
  90. Codec ID                                 : S_HDMV/PGS
  91. Codec ID/Info                            : Picture based subtitle format used on BDs/HD-DVDs
  92. Duration                                 : 1 h 40 min
  93. Bit rate                                 : 68.8 kb/s
  94. Count of elements                        : 4920
  95. Stream size                              : 49.6 MiB (1%)
  96. Title                                    : English SDH
  97. Language                                 : English
  98. Default                                  : No
  99. Forced                                   : No

  100. Text #2
  101. ID                                       : 6
  102. Format                                   : PGS
  103. Muxing mode                              : zlib
  104. Codec ID                                 : S_HDMV/PGS
  105. Codec ID/Info                            : Picture based subtitle format used on BDs/HD-DVDs
  106. Duration                                 : 1 h 46 min
  107. Bit rate                                 : 51.2 kb/s
  108. Count of elements                        : 4186
  109. Stream size                              : 38.9 MiB (0%)
  110. Title                                    : Spanish
  111. Language                                 : Spanish
  112. Default                                  : No
  113. Forced                                   : No

  114. Text #3
  115. ID                                       : 7
  116. Format                                   : PGS
  117. Muxing mode                              : zlib
  118. Codec ID                                 : S_HDMV/PGS
  119. Codec ID/Info                            : Picture based subtitle format used on BDs/HD-DVDs
  120. Duration                                 : 1 h 46 min
  121. Bit rate                                 : 48.7 kb/s
  122. Count of elements                        : 4170
  123. Stream size                              : 37.0 MiB (0%)
  124. Title                                    : French
  125. Language                                 : French
  126. Default                                  : No
  127. Forced                                   : No

  128. Text #4
  129. ID                                       : 8
  130. Format                                   : PGS
  131. Muxing mode                              : zlib
  132. Codec ID                                 : S_HDMV/PGS
  133. Codec ID/Info                            : Picture based subtitle format used on BDs/HD-DVDs
  134. Duration                                 : 1 h 43 min
  135. Bit rate                                 : 1 467 b/s
  136. Count of elements                        : 78
  137. Stream size                              : 1.09 MiB (0%)
  138. Title                                    : Spanish
  139. Language                                 : Spanish
  140. Default                                  : No
  141. Forced                                   : No

  142. Text #5
  143. ID                                       : 9
  144. Format                                   : PGS
  145. Muxing mode                              : zlib
  146. Codec ID                                 : S_HDMV/PGS
  147. Codec ID/Info                            : Picture based subtitle format used on BDs/HD-DVDs
  148. Duration                                 : 1 h 46 min
  149. Bit rate                                 : 497 b/s
  150. Count of elements                        : 42
  151. Stream size                              : 387 KiB (0%)
  152. Title                                    : French
  153. Language                                 : French
  154. Default                                  : No
  155. Forced                                   : No

  156. Menu
  157. 00:00:00.000                             : Chapter 01
  158. 00:04:18.383                             : Chapter 02
  159. 00:09:50.673                             : Chapter 03
  160. 00:13:43.364                             : Chapter 04
  161. 00:19:51.816                             : Chapter 05
  162. 00:24:55.119                             : Chapter 06
  163. 00:29:12.125                             : Chapter 07
  164. 00:34:22.018                             : Chapter 08
  165. 00:38:09.245                             : Chapter 09
  166. 00:44:36.299                             : Chapter 10
  167. 00:51:25.124                             : Chapter 11
  168. 01:00:47.853                             : Chapter 12
  169. 01:04:54.474                             : Chapter 13
  170. 01:08:08.209                             : Chapter 14
  171. 01:13:27.403                             : Chapter 15
  172. 01:18:38.172                             : Chapter 16
  173. 01:22:44.418                             : Chapter 17
  174. 01:27:13.437                             : Chapter 18
  175. 01:35:06.701                             : Chapter 19
  176. 01:38:13.721                             : Chapter 20
  177. 01:47:12.468                             : Chapter 21
复制代码

c1faf45ac2323c318954ac89dec7823a.jpeg

蓝光高清网提示您  点击下方附件名称  马上开始下载

宝贝老板2/宝贝老板:家大业大 The.Boss.Baby.Family.Business.2021.1080p.BluRay.x264-PiGNUS 8.78GB 
The.Boss.Baby.Family.Business.2021.1080p.BluRay.x264-PiGNUS.torrent (文件大小:22.74 KB)
加入蓝光高清网VIP会员  无限制下载本站所有资源---点这里

资源下载、资源播放、字幕使用、无法下载等常见问题---点这里
回复

使用道具 举报

精彩评论3

milanboss手机认证 发表于 2021-9-15 09:38:56 | 显示全部楼层
加入蓝光高清网VIP会员
回复 支持 反对

使用道具 举报

sney2004手机认证 发表于 2021-9-16 13:02:19 来自手机 | 显示全部楼层
好的,谢谢楼主分享
回复 支持 反对

使用道具 举报

小坚哥哥手机认证 发表于 2021-9-17 15:32:11 | 显示全部楼层
不错的片子,已经出续集了
回复 支持 反对

使用道具 举报

您需要登录后才可以回帖 登录 | 立即注册

本版积分规则

烧友之家(蓝光高清网)本站内容部分由用户自主分享和转载自互联网,转载目的在于传递更多信息,并不代表本网赞同其观点和对其真实性负责。 如有侵权、违反国家法律政策行为,请联系我们,我们会第一时间及时清除和处理!
蓝光高清网 综合资讯平台
关注我们
  • 官方微信公众号
  • 扫码下载官方APP

X3.4 Licensed© 2001-2013 蓝光高清网 烧友之家APP |网站地图