游客您好
第三方账号登陆
  • 点击联系客服

    在线时间:9:00-18:00

    客服QQ

    1371333023

    电子邮件

    lanniao@1080pro.net
  • 烧友之家APP

    随时掌握烧友资讯

  • 扫描二维码

    关注微信公众号

推荐阅读
蓝鸟
未知星球 | 未知职业
  • 关注0
  • 粉丝2
  • 帖子95993
精选帖子
开启左侧

[4K高清美剧] 早间新闻 第二季4kThe.Morning.Show.S02E01.REPACK.HDR.2160p.WEB.H264-4k美剧下载—9.48 GB

[复制链接]
蓝鸟 发表于 2021-9-17 18:35:58 | 显示全部楼层 |阅读模式 打印 上一主题 下一主题
早间新闻

状态:第二季(更新至第1集 共10集)
上映时间:2021-09-17
类型:剧情 
地区:美国
导演:米密·莱德
主演:詹妮弗·安妮斯顿 / 瑞茜·威瑟斯彭 / 内斯特·卡博内尔 / 史蒂夫·卡瑞尔 / 朱丽安娜· 玛格丽丝
画质标准:4K(3840x2160) 封装音轨:MKV 音轨编码:其他DD
豆瓣评分:8.6分
剧情简介
  在第 1 季的爆炸性事件之后,本季发现早间秀团队从亚历克斯(詹妮弗安妮斯顿)和布拉德利(瑞茜威瑟斯彭)的行动的残骸中脱颖而出,到一个新的 UBA 和一个不断变化的世界,在那里身份就是一切,我们呈现的人与我们的真实身份之间的鸿沟开始发挥作用。
  除了安妮斯顿和威瑟斯彭,第 2 季的回归演员还包括史蒂夫·卡瑞尔、比利·克鲁德普、马克·杜普拉斯、内斯特·卡博内尔、凯伦·皮特曼、贝尔·波利、迪森·特里、珍妮娜·加万卡、汤姆·欧文和玛西娅·盖伊·哈登。本赛季新加入的明星有 Greta Lee、Ruairi O'Connor、Hasan Minhaj、Cybil Richards、Tara Karsian、Valeria Golino 和 Julianna Margulies....
影片参数
早间新闻 第二季4kThe.Morning.Show.S02E01.REPACK.HDR.2160p.WEB.H264-4k美剧信息
Video
ID : 1
Format : HEVC
Format/Info : High Efficiency Video Coding
Format profile : Main 10@L5@High
HDR format : SMPTE ST 2086, HDR10 compatible
Codec ID : V_MPEGH/ISO/HEVC
Duration : 53 min 8 s
Bit rate : 24.8 Mb/s
Width : 3 840 pixels
Height : 1 920 pixels
Display aspect ratio : 2.000
Frame rate mode : Constant
Frame rate : 23.976 FPS
Color space : YUV
Chroma subsampling : 4:2:0 (Type 2)
Bit depth : 10 bits
Bits/(Pixel*Frame) : 0.140
Stream size : 9.20 GiB (97%)
Language : English
Default : Yes
Forced : No
Color range : Limited
Color primaries : BT.2020
Transfer characteristics : PQ
Matrix coefficients : BT.2020 non-constant
Mastering display color primaries : Display P3
Mastering display luminance : min: 0.0050 cd/m2, max: 1000 cd/m2
Maximum Content Light Level : 735 cd/m2
Maximum Frame-Average Light Level : 319 cd/m2


Audio
ID : 2
Format : E-AC-3 JOC
Format/Info : Enhanced AC-3 with Joint Object Coding
Commercial name : Dolby Digital Plus with Dolby Atmos
Codec ID : A_EAC3
Duration : 53 min 8 s
Bit rate mode : Constant
Bit rate : 768 kb/s
Channel(s) : 6 channels
Channel layout : L R C LFE Ls Rs
Sampling rate : 48.0 kHz
Frame rate : 31.250 FPS (1536 SPF)
Compression mode : Lossy
Stream size : 292 MiB (3%)
Language : English
Service kind : Complete Main
Default : Yes
Forced : No
Complexity index : 16
Number of dynamic objects : 15
Bed channel count : 1 channel
Bed channel configuration : LFE


Text #1
ID : 3
Format : UTF-8
Codec ID : S_TEXT/UTF8
Codec ID/Info : UTF-8 Plain Text
Duration : 52 min 55 s
Bit rate : 123 b/s
Count of elements : 890
Stream size : 48.1 KiB (0%)
Title : العربية
Language : Arabic
Default : No
Forced : No


Text #2
ID : 4
Format : UTF-8
Codec ID : S_TEXT/UTF8
Codec ID/Info : UTF-8 Plain Text
Duration : 52 min 55 s
Bit rate : 121 b/s
Count of elements : 781
Stream size : 46.9 KiB (0%)
Title : български
Language : Bulgarian
Default : No
Forced : No


Text #3
ID : 5
Format : UTF-8
Codec ID : S_TEXT/UTF8
Codec ID/Info : UTF-8 Plain Text
Duration : 52 min 55 s
Bit rate : 79 b/s
Count of elements : 892
Stream size : 30.6 KiB (0%)
Title : 中文(简体)
Language : Chinese
Default : No
Forced : No


Text #4
ID : 6
Format : UTF-8
Codec ID : S_TEXT/UTF8
Codec ID/Info : UTF-8 Plain Text
Duration : 52 min 55 s
Bit rate : 78 b/s
Count of elements : 893
Stream size : 30.4 KiB (0%)
Title : 中文(繁體)
Language : Chinese
Default : No
Forced : No


Text #5
ID : 7
Format : UTF-8
Codec ID : S_TEXT/UTF8
Codec ID/Info : UTF-8 Plain Text
Duration : 52 min 55 s
Bit rate : 79 b/s
Count of elements : 844
Stream size : 30.8 KiB (0%)
Title : Čeština
Language : Czech
Default : No
Forced : No


Text #6
ID : 8
Format : UTF-8
Codec ID : S_TEXT/UTF8
Codec ID/Info : UTF-8 Plain Text
Duration : 52 min 55 s
Bit rate : 72 b/s
Count of elements : 860
Stream size : 28.1 KiB (0%)
Title : dansk
Language : Danish
Default : No
Forced : No


Text #7
ID : 9
Format : UTF-8
Codec ID : S_TEXT/UTF8
Codec ID/Info : UTF-8 Plain Text
Duration : 52 min 55 s
Bit rate : 90 b/s
Count of elements : 752
Stream size : 35.1 KiB (0%)
Title : Deutsch
Language : German
Default : No
Forced : No


蓝光高清网提示您  点击下方附件名称  马上开始下载


早间新闻 第二季4kThe.Morning.Show.S02E01.REPACK.HDR.2160p.WEB.H264-4k美剧下载


早间新闻 第二季4k The.Morning.Show.S02E01.REPACK.HDR.2160p.WEB.H264【9.48 GB】
早间新闻 第二季4k The.Morning.Show.S02E01.REPACK.HDR.2160p.WEB.H264-PECUL.torrent (大小:24.35 KB)


早间新闻 第二季4k The.Morning.Show.S02E01.2160p.ATVP.WEB-DL.DDP5.1.Atmos.x265【7.98 GB】

早间新闻 第二季4k The.Morning.Show.S02E01.2160p.ATVP.WEB-DL.DDP5.1.Atmos..torrent (大小:20.62 KB)


第一集 自带中字



加入蓝光高清网VIP会员  无限制下载本站所有资源---点这里

资源下载、资源播放、字幕使用、无法下载等常见问题---点这里
回复

使用道具 举报

精彩评论1

sinoivanlee手机认证 发表于 2021-10-2 14:36:32 | 显示全部楼层
喜欢这对姐妹花
回复 支持 反对

使用道具 举报

您需要登录后才可以回帖 登录 | 立即注册

本版积分规则

烧友之家(蓝光高清网)本站内容部分由用户自主分享和转载自互联网,转载目的在于传递更多信息,并不代表本网赞同其观点和对其真实性负责。 如有侵权、违反国家法律政策行为,请联系我们,我们会第一时间及时清除和处理!
蓝光高清网 综合资讯平台
关注我们
  • 官方微信公众号
  • 扫码下载官方APP

X3.4 Licensed© 2001-2013 蓝光高清网 烧友之家APP |网站地图