游客您好
第三方账号登陆
  • 点击联系客服

    在线时间:9:00-18:00

    客服QQ

    1371333023

    电子邮件

    lanniao@1080pro.net
  • 烧友之家APP

    随时掌握烧友资讯

  • 扫描二维码

    关注微信公众号

推荐阅读
蓝鸟
未知星球 | 未知职业
  • 关注0
  • 粉丝2
  • 帖子95993
精选帖子
开启左侧

Adams.Package.2021.2160p.WEB-DL.x265.10bit.SDR.AAC2.0-4k电影下载—6.94 GB

[复制链接]
蓝鸟 发表于 2021-9-18 09:19:28 | 显示全部楼层 |阅读模式 打印 上一主题 下一主题
Adams.Package
上映时间:2021年
类型:喜剧 
地区:美国 
导演:Andrew Chiaramonte
主演:
画质标准:4K SDR  封装音轨:DTS-HD.MA.2.0 
豆瓣评分:
简       介
& n  V: J* A" B; x1 O* r; i9 ?
- r0 m6 i  S. t" Q4 _' ~( C# @# ?

$ @2 ?5 w2 x6 T/ r" a4 e# l       亚当是一个过着好莱坞大块头生活的外星人,只是他不知道。他作为一名男模赚取了丰厚的收入,而且他被一群美丽的女人所吸引,其中包括一个在他的公寓里出没的性感鬼魂。在他地下室发现的绝密 UFO 文件使他处于危险之中。影子政府的工作人员希望他死,他的前妻也是为了保险金。在好莱坞作为外星模特生活肯定有问题。
+ T& u5 z: n8 O8 ]+ h( ?
! I' I( A2 r  \, }  G# @3 Z

+ i! B: D" h4 [2 d/ h: w9 N4 M6 M影片参数
" D" e2 ~: g8 c& q8 m
Adams.Package.2021.2160p.WEB-DL.x265.10bit.SDR.AAC2.0-4k电影信息2 F4 y/ c. k: ^
Video
& h+ P# K) `7 B- |ID : 13 H' x& H& j; U* f. y
Format : HEVC
) z- [, c5 [4 Z: U1 a9 W- ?Format/Info : High Efficiency Video Coding
& O4 \% b4 u; p1 ?) E6 LFormat profile : Main 10@L5@High
" t; J4 y8 W7 _# L" b8 [Codec ID : V_MPEGH/ISO/HEVC7 T5 Y  u0 a5 y" I8 z  r
Duration : 1 h 21 min: y3 {* t+ |7 C* o( H
Bit rate : 12.0 Mb/s
: j) ?, q  r3 o  oWidth : 3 836 pixels
" r  l6 a8 H1 THeight : 2 156 pixels
  ~0 y# ~3 g, q# J3 H2 MDisplay aspect ratio : 16:9
& b: w. G3 I& F  [, YFrame rate mode : Constant
9 L0 r( G6 c# b) p! N& dFrame rate : 24.000 FPS
5 l  E) n, ^; O; CColor space : YUV+ u/ l" u- L6 o- j- w/ {$ i  ^
Chroma subsampling : 4:2:0& \9 L, Q8 {  O
Bit depth : 10 bits
) M& O: p. g) p: {: ~& OBits/(Pixel*Frame) : 0.061
9 t  ?. ^; T  t! d2 vStream size : 6.85 GiB (99%)" j  k3 s3 F1 s% ^( a6 [$ {
Default : Yes+ x5 e* Y1 {; x( c. v2 P: ]6 g
Forced : No
) z) F& \; C; r3 Z& j/ E8 j$ w  {Color range : Limited
' A. n" V" X& vColor primaries : BT.709
% X( Q5 h3 S3 T8 |4 nTransfer characteristics : BT.709, V* x: H/ x& ~+ _0 L
Matrix coefficients : BT.709
2 _0 ^5 b4 ~1 E, K* {$ N& j; q) _: N1 l. ^8 b2 m. m

0 T* V8 M1 _  K. AAudio" c+ R6 a- `# I! R+ z$ @
ID : 2- m- X$ {( H/ ?7 q3 i
Format : AAC LC
4 m" r( _+ R/ w- ~) LFormat/Info : Advanced Audio Codec Low Complexity
* t5 j3 {4 L4 R$ ]3 c( H# ~( M2 ?Codec ID : A_AAC-28 p0 R* R% p6 D5 f8 U7 [" o
Duration : 1 h 21 min
% @3 n9 ?" }$ j0 tBit rate : 153 kb/s( I: A  D6 Z# n& x0 {
Channel(s) : 2 channels
# t2 B3 J- x. y4 _7 E, N/ S4 a7 [Channel layout : L R
+ h4 k  l4 a0 L9 eSampling rate : 48.0 kHz& m2 e$ _' d  v- R" w1 o
Frame rate : 46.875 FPS (1024 SPF)4 t; F9 X+ G; m( k
Compression mode : Lossy' L* z5 T. `. C5 s% f" s9 g- M1 W' O7 D
Stream size : 89.1 MiB (1%)# ]0 l9 L6 }8 I0 N/ ~7 Q
Title : English
; Q! d( {. s0 vLanguage : English
+ ^2 M3 Z) @+ v, `+ J7 QDefault : No; m; c+ R0 l5 a, Z6 \
Forced : No3 `" E' P2 l/ w+ K! F

0 N+ Q" i" v" h; x& P6 w
5 g$ L9 a' Q/ W, J0 q
Text4 m: M3 Y8 f6 S( _- T2 I& D
ID : 37 x+ ^4 C% M' n% Q, d+ C
Format : UTF-8
& `8 L& m, h# l' B2 O3 aCodec ID : S_TEXT/UTF85 B2 p+ Q! e2 G/ H! X; `
Codec ID/Info : UTF-8 Plain Text, f. e3 v0 p; F7 ?( U3 u
Duration : 1 h 19 min9 \  }; D/ k3 {" `1 h
Bit rate : 64 b/s
: R! l- `# D$ r4 H  cCount of elements : 1048! M% R4 x0 U* l
Stream size : 37.5 KiB (0%)! x6 P; p; n; p- F+ w
Language : English
' R9 a% x% Y9 E. O( ?# e' mDefault : Yes
: v$ G. h- a! A+ MForced : No

6 X, X9 m: O4 ]0 A7 Y0 F% q! `3 P
蓝光高清网提示您  点击下方附件名称即可开始下载( U/ q2 z* J" T3 {+ T2 R/ T

9 ^; ]) c! Z& \. k

! N, X! f; {9 A8 m  cAdams.Package.2021.2160p.WEB-DL.x265.10bit.SDR.AAC2.0-4k电影下载5 l0 ?. W% @: x# X" t% u

0 ]7 v3 z0 G$ ?$ l( ~3 TAdams.Package.2021.2160p.WEB-DL.x265.10bit.SDR.AAC2.0【、6.94 GB】
  O& y6 c/ O, x1 u: P  } Adams.Package.2021.2160p.WEB-DL.x265.10bit.SDR.AAC2.0-NOGRP.torrent (大小:18 KB) 5 m/ T( V( W8 X3 V7 w+ q- P

, R4 F3 _* Z7 O7 Q; E
加入蓝光高清网VIP会员  无限制下载本站所有资源---点这里

资源下载、资源播放、字幕使用、无法下载等常见问题---点这里
回复

使用道具 举报

精彩评论1

。。。_KVLZ 发表于 2021-9-23 14:42:50 | 显示全部楼层
222222222222222
回复 支持 反对

使用道具 举报

您需要登录后才可以回帖 登录 | 立即注册

本版积分规则

烧友之家(蓝光高清网)本站内容部分由用户自主分享和转载自互联网,转载目的在于传递更多信息,并不代表本网赞同其观点和对其真实性负责。 如有侵权、违反国家法律政策行为,请联系我们,我们会第一时间及时清除和处理!
蓝光高清网 综合资讯平台
关注我们
  • 官方微信公众号
  • 扫码下载官方APP

X3.4 Licensed© 2001-2013 蓝光高清网 烧友之家APP |网站地图