游客您好
第三方账号登陆
  • 点击联系客服

    在线时间:9:00-18:00

    客服QQ

    1371333023

    电子邮件

    lanniao@1080pro.net
  • 烧友之家APP

    随时掌握烧友资讯

  • 扫描二维码

    关注微信公众号

推荐阅读
1080pro 手机认证
未知星球 | 未知职业
  • 关注0
  • 粉丝1
  • 帖子439
精选帖子
开启左侧

出租车司机 4k Taxi.Driver.1976.2160p.UHD.BluRay.x265.10bit.HDR.DTS-HD.MA.5.1-4k电影下载—33.45 GB

[复制链接]
1080pro手机认证 发表于 2021-9-18 14:52:49 | 显示全部楼层 |阅读模式 打印 上一主题 下一主题
出租车司机
上映时间:更早
类型:剧情 犯罪 
地区:美国 
导演:马丁·斯科塞斯
主演:罗伯特·德尼罗 / 朱迪·福斯特 / 斯碧尔·谢波德 / 艾伯特·布鲁克斯 / 哈威·凯特尔
画质标准:4K HDR  封装音轨:DTS-HD.MA 5.1 
豆瓣评分:8.5分
简       介
1 [$ \- ]3 r7 x7 m; r# F
, {5 u* O# M2 d' ]6 x3 B

, a6 T  H( U, O7 d9 w9 Q  特拉维斯(罗伯特·德尼罗 Robert De Niro 饰)从越战中退伍回来后一直在纽约以开出租车为生。战争后的他多少有些失落,加上开出租车目睹了纽约夜幕下的种种罪恶,令他变得愤世嫉俗、痛恨社会。在追求总统候选人帕兰坦竞选办公室的秘书贝西失败后,特拉维斯决定去刺杀帕兰坦 以证明自己。
; C8 H/ F, k0 Q9 u! n3 ~: j. r  在准备刺杀行动的过程中,特拉维斯遇上了被逼卖淫的雏妓艾瑞斯。在企图救艾瑞斯出火坑未果后,特拉维斯手持武器闯进淫窝,将里面的一干人等通通干掉了!本以为即将收到法律的惩罚,然而媒体却将特拉维斯描述成了一个拯救少女的英雄……
) N% ^! Q3 c" F% F) F5 }" \4 G
& `' \$ n0 ~- n) K& o% v
# y2 t3 e2 t" _, j; A) m: G8 j2 |
影片参数8 W) S8 T' ^. d, e3 F
士司机(港) / 计程车司机(台) / 出租汽车司机/出租车司机4k Taxi.Driver.1976.2160p.UHD.BluRay.x265.10bit.HDR.DTS-HD.MA.5.1-4k电影信息
( D1 h- x( j& H+ @. P! |9 jVideo# n+ n, h1 i0 O4 u6 O5 c
ID : 1
! {& i4 B8 y) gFormat : HEVC3 [+ F, u& _- r9 O5 |' e. c+ ]' G
Format/Info : High Efficiency Video Coding$ y* ~' Z6 s# e; ~4 V
Format profile : Main 10@L5.1@High' i( h+ x6 ~- [3 C+ q
HDR format : SMPTE ST 2086, HDR10 compatible
! C# K; Y" h8 i, h8 P9 I& b& MCodec ID : V_MPEGH/ISO/HEVC. L' }( W( d% h. P/ j* r
Duration : 1 h 53 min
5 ]$ s1 L3 l" S7 o$ L# |, Z( e6 XBit rate : 39.0 Mb/s
' a/ N: z: c+ L8 OWidth : 3 840 pixels8 z! n; J. q) c: t, m, s5 U  }
Height : 2 076 pixels
9 `4 H0 v+ S, ]& S" l& b# E# c$ n- hDisplay aspect ratio : 1.85:1* h- J$ t  q" [% N& i3 {
Frame rate mode : Constant
% a; `" _- O6 S9 o; X. XFrame rate : 23.976 (24000/1001) FPS
8 c' l5 q( l( I2 {) o5 ^Color space : YUV) _5 c8 H( a" v5 R' L
Chroma subsampling : 4:2:0 (Type 2). U( C0 Y! D& G
Bit depth : 10 bits+ d, g: w' o2 }: x
Bits/(Pixel*Frame) : 0.204" g' S# \% \# ?5 X2 D& n& n0 X6 y
Stream size : 31.0 GiB (93%)" k  g7 S# d$ ]
Writing library : x265 3.5+13-4c6880de4:[Windows][MSVC 1900][64 bit] 10bit
2 G3 ?+ ^' V2 JEncoding settings : cpuid=1111039 / frame-threads=6 / numa-pools=32 / wpp / no-pmode / no-pme / no-psnr / no-ssim / log-level=2 / input-csp=1 / input-res=3840x2076 / interlace=0 / total-frames=163704 / level-idc=51 / high-tier=1 / uhd-bd=0 / ref=4 / no-allow-non-conformance / repeat-headers / annexb / aud / no-eob / no-eos / hrd / info / hash=0 / no-temporal-layers / no-open-gop / min-keyint=23 / keyint=250 / gop-lookahead=0 / bframes=4 / b-adapt=2 / b-pyramid / bframe-bias=0 / rc-lookahead=25 / lookahead-slices=4 / scenecut=40 / no-hist-scenecut / radl=0 / no-splice / no-intra-refresh / ctu=64 / min-cu-size=8 / rect / no-amp / max-tu-size=32 / tu-inter-depth=1 / tu-intra-depth=1 / limit-tu=0 / rdoq-level=2 / dynamic-rd=0.00 / no-ssim-rd / signhide / no-tskip / nr-intra=0 / nr-inter=0 / no-constrained-intra / no-strong-intra-smoothing / max-merge=3 / limit-refs=3 / limit-modes / me=3 / subme=3 / merange=57 / temporal-mvp / no-frame-dup / no-hme / weightp / no-weightb / no-analyze-src-pics / deblock=-3:-3 / no-sao / no-sao-non-deblock / rd=4 / selective-sao=0 / no-early-skip / rskip / no-fast-intra / no-tskip-fast / no-cu-lossless / no-b-intra / no-splitrd-skip / rdpenalty=0 / psy-rd=2.00 / psy-rdoq=1.00 / no-rd-refine / no-lossless / cbqpoffs=0 / crqpoffs=0 / rc=crf / crf=19.7 / qcomp=0.60 / qpstep=4 / stats-write=0 / stats-read=0 / vbv-maxrate=160000 / vbv-bufsize=160000 / vbv-init=0.9 / min-vbv-fullness=50.0 / max-vbv-fullness=80.0 / crf-max=0.0 / crf-min=0.0 / ipratio=1.40 / pbratio=1.30 / aq-mode=2 / aq-strength=0.70 / cutree / zone-count=0 / no-strict-cbr / qg-size=32 / no-rc-grain / qpmax=69 / qpmin=0 / no-const-vbv / sar=1 / overscan=0 / videoformat=5 / range=0 / colorprim=9 / transfer=16 / colormatrix=9 / chromaloc=1 / chromaloc-top=2 / chromaloc-bottom=2 / display-window=0 / master-display=G(13250,34500)B(7500,3000)R(34000,16000)WP(15635,16450)L(40000000,50) / cll=3242,146 / min-luma=0 / max-luma=1023 / log2-max-poc-lsb=8 / vui-timing-info / vui-hrd-info / slices=1 / no-opt-qp-pps / no-opt-ref-list-length-pps / no-multi-pass-opt-rps / scenecut-bias=0.05 / hist-threshold=0.03 / no-opt-cu-delta-qp / no-aq-motion / hdr10 / hdr10-opt / no-dhdr10-opt / no-idr-recovery-sei / analysis-reuse-level=0 / analysis-save-reuse-level=0 / analysis-load-reuse-level=0 / scale-factor=0 / refine-intra=0 / refine-inter=0 / refine-mv=1 / refine-ctu-distortion=0 / no-limit-sao / ctu-info=0 / no-lowpass-dct / refine-analysis-type=0 / copy-pic=1 / max-ausize-factor=1.0 / no-dynamic-refine / no-single-sei / no-hevc-aq / no-svt / no-field / qp-adaptation-range=1.00 / scenecut-aware-qp=0conformance-window-offsets / right=0 / bottom=0 / decoder-max-rate=0 / no-vbv-live-multi-pass7 w! v; O+ z5 t
Default : Yes
1 ^) D, E3 W9 t( T8 i! n& dForced : No/ q* v6 O) ]- A. o) I! _
Color range : Limited
, f) F8 ]  t# D# h* l/ cColor primaries : BT.2020
* h3 f" P: L6 z! CTransfer characteristics : PQ2 i+ r, q  g; H. z
Matrix coefficients : BT.2020 non-constant
6 m! j" g& `8 W6 U, S! `, LMastering display color primaries : Display P3
; U0 Z; k! a. S6 ?Mastering display luminance : min: 0.0050 cd/m2, max: 4000 cd/m26 h/ m' n5 q  [' u
Maximum Content Light Level : 3242 cd/m2% H$ w+ T. y' L, z
Maximum Frame-Average Light Level : 146 cd/m2
3 Y/ B7 k. q4 S( v) `: o$ R7 [1 @6 n$ v9 J

$ F0 I4 W* V6 z6 b7 ^5 o( k' WAudio #1. |/ A5 |/ {  ~2 M
ID : 2
: Z4 [8 K1 ]! W  C8 o7 ^- B+ CFormat : DTS XLL
9 L# g7 b/ Y3 l% T/ iFormat/Info : Digital Theater Systems" K$ P2 ?6 Q4 y0 i
Commercial name : DTS-HD Master Audio
- Q) a% ~7 M1 t6 j1 V) F/ R4 x0 d' _Codec ID : A_DTS1 S' q4 [$ F) [/ c6 [$ ^
Duration : 1 h 53 min
' j) o' G; [; n4 R& I. KBit rate mode : Variable
. c1 d* G9 w4 l5 K1 k3 O& ~6 o! }1 sBit rate : 2 143 kb/s4 K4 x8 i5 N9 I3 s- K* l& z
Channel(s) : 6 channels5 A* ^; ^* r* l9 X0 Z3 I
Channel layout : C L R Ls Rs LFE
' _7 {3 `  T$ u) |& lSampling rate : 48.0 kHz7 v& U1 z3 f- \
Frame rate : 93.750 FPS (512 SPF)
! E! _, K" @9 Z# c- c+ hBit depth : 16 bits
9 P  ?& q) t& [; v! Z& GCompression mode : Lossless, F. W, w' q/ Y1 t0 x
Stream size : 1.70 GiB (5%)
8 d9 g3 |9 q. x6 V  zTitle : DTS-HD MA 5.1, n# i/ Q- G6 }$ t" U( A9 I9 I
Language : English
% c" H% d, ~; w2 S% fDefault : Yes5 ]1 V- W6 [% ^8 l
Forced : No
$ ?; b5 l! [1 J7 s* e2 y
( ^: G: c8 i6 E, q9 f
1 o! v) R) U" S8 [: t7 X
Audio #2
6 k+ \" O5 W1 [, a4 U: _$ h4 \ID : 3' C( h, o' u, u
Format : FLAC. [- l) O2 |! Q" h
Format/Info : Free Lossless Audio Codec
. R, v) p) m& Y2 y/ B# ^8 z0 xCodec ID : A_FLAC' K$ [# ?1 o$ @) i0 w* ]: t- Z
Duration : 1 h 53 min# ]. f: s4 d# \4 x7 }5 f
Bit rate mode : Variable
& x- H  [8 J/ f# _2 MBit rate : 306 kb/s
  L6 j- t# f/ l" F6 IChannel(s) : 2 channels8 V. J9 h# H; a% C$ Y4 e7 Y
Channel layout : L R) c( L8 @: l3 G5 {8 m
Sampling rate : 48.0 kHz" L: ^& T! X! W" @) Y0 ^; _
Frame rate : 11.719 FPS (4096 SPF)
3 ]8 v" \1 q$ C3 N/ ~# Y7 OBit depth : 16 bits
' A; ]* F  k# F0 F% P2 QCompression mode : Lossless& T/ l! p4 Z8 K% }& z: u
Stream size : 249 MiB (1%)) G( G9 z5 o: i& [
Title : (Original Audio)
# j! o" @5 b3 I/ ]Writing library : libFLAC 1.2.1 (UTC 2007-09-17)
% Y/ ?: r8 b8 aLanguage : English
3 q8 R: |) z, s8 S, RDefault : Yes8 @/ }3 S) |5 O' t
Forced : No' g  k% m0 N) C$ k- a' e

1 J  H" t/ B# n9 c  w' q9 Y3 }

! q; C* `9 k# t6 uText #1
8 V$ {  j. F, r6 cID : 4
! y4 {. N7 ^& N' y/ [( lFormat : PGS
7 b3 a# ]) r  f1 E( FMuxing mode : zlib
2 V6 t$ c1 ^: Y  n1 m4 @# \Codec ID : S_HDMV/PGS
* ^% j1 C! C3 [+ \$ wCodec ID/Info : Picture based subtitle format used on BDs/HD-DVDs
) U5 C9 a$ z) }5 O0 }; Z" qDuration : 1 h 48 min0 Z- J7 X! @3 U# b, @: N5 t# X: L1 R
Bit rate : 31.7 kb/s
& M5 Y, B  l3 }. l9 FCount of elements : 24515 A/ G# V; r( }* p) Q  S
Stream size : 24.5 MiB (0%)- w& r8 I$ S2 a! H' L& B1 t
Title : Full- [. n; R/ U2 u1 I, k
Language : English
4 x8 b+ O; d) g7 d- f( B; w; h& lDefault : No' e. M/ R; V3 [8 L# Z* n
Forced : No2 s! {) [: T: }# W4 j1 `- v' x) T3 N/ O

; T! O/ J7 M! P# _) q

& g4 ], P; _: i% r- M: sText #2: z$ Q+ p" u% L7 B* U/ v2 J
ID : 5+ M& _$ A9 j" e: D
Format : PGS
1 r! H8 O1 ]: ~) {( v- m$ gMuxing mode : zlib
- Y! {: @  {; Q* D% o% c4 w7 ZCodec ID : S_HDMV/PGS+ H4 S: p1 l5 y! p
Codec ID/Info : Picture based subtitle format used on BDs/HD-DVDs
6 H$ ?7 [& q/ t- k  w- i1 F) tDuration : 1 h 48 min$ P9 O. Y0 I& x7 o9 [
Bit rate : 31.7 kb/s
; a6 I, \- k$ H& y$ dCount of elements : 2451
' v* E, j, ?% H- [& n  CStream size : 24.5 MiB (0%)4 a* v5 u) O1 @; S. J) e
Title : Full0 T5 ~) z/ c/ Q/ j
Language : English
/ H; Q! ~' B) G; g8 l( |' pDefault : No9 M6 O7 {/ \, Q6 T2 E
Forced : No6 C1 y: a% t2 O

# C% v. K3 t2 |9 ^$ a

  O# x. {6 V3 i1 n  t, aText #3
$ X% A: L& P" p7 eID : 6
$ \4 j7 Q3 y* m- m( VFormat : PGS
- I9 P7 m0 G+ jMuxing mode : zlib
! d- b% n5 t% f! U2 @Codec ID : S_HDMV/PGS/ `+ ^% [% X/ R: ^
Codec ID/Info : Picture based subtitle format used on BDs/HD-DVDs% x, M6 ^: l) y$ j
Duration : 1 h 50 min
( L; O3 e2 U, p! A8 H. ]& _Bit rate : 34.3 kb/s
9 M' E! d6 s- f( bCount of elements : 26958 W4 N' Q. ]+ n; A) ]
Stream size : 27.0 MiB (0%)2 B% \4 n7 Q, }* W, [
Title : SDH
: e1 _& ~# W. t6 A! s1 nLanguage : English9 q; ?* U) n6 M1 M; X5 K2 u
Default : No
. H3 ^2 c: v* P! Q8 qForced : No
& @  R* z. X' O* S, e! M* p; b- R) Q9 V( z0 e

' F/ {& l' {2 T' nText #4
7 \4 p; d1 b/ d- G( x( ^8 D5 V- dID : 7$ l8 D2 s( {3 {
Format : PGS1 U" z! }1 i- J+ f& H) u
Muxing mode : zlib
& n7 t! e% A9 R9 z5 qCodec ID : S_HDMV/PGS  x$ ^1 t* p( C
Codec ID/Info : Picture based subtitle format used on BDs/HD-DVDs5 B9 P! c* o/ O9 a3 ~
Duration : 1 h 50 min
9 l: [5 P' ?1 Q' vBit rate : 34.3 kb/s
" A7 e9 k# w# j/ JCount of elements : 2695/ K* Q1 T: A( ~/ a' _$ S' \1 Q
Stream size : 27.0 MiB (0%). X' V5 I# Y1 S7 G- f  }% M
Title : SDH2 m: Q; y4 J. r$ X0 a
Language : English  f& z6 z4 \: c5 \% F* q" T1 G
Default : No
- s0 s1 N) _# P9 `( U3 WForced : No
9 X6 a& w( [& d) v* W1 {
  r) L, L" C3 }1 z" X0 P7 N0 ~

4 _/ r/ F7 G9 J' Z& AText #5; D) `; l+ H; y  P* k. {* V  o9 S
ID : 83 o/ S; x+ [8 h2 [
Format : PGS  x+ n$ ]7 v- ^- z( z$ F
Muxing mode : zlib
6 Z3 `" x5 Q. f) X- TCodec ID : S_HDMV/PGS
* n) `9 P( f1 }. ]; G3 A& DCodec ID/Info : Picture based subtitle format used on BDs/HD-DVDs6 L+ d4 y1 \1 p2 a+ B6 D" I8 ]& h
Duration : 1 h 51 min$ c/ M  m0 [3 e. v$ _4 u; _2 a
Bit rate : 27.5 kb/s
% k5 s8 Q+ i( mCount of elements : 2424
0 D3 L' N; N. t# VStream size : 21.9 MiB (0%); _* j6 M& \4 K/ `4 u3 o* m
Title : French! g- H! j9 @+ B
Language : French
' t: p$ H4 C( ]2 \Default : No  H$ X# `$ O7 H  R6 }' J
Forced : No
6 J( ^/ d0 T# j$ v
6 q4 x# N6 N5 J- b: H( K, O

; t" m3 K- ?# VText #6' L7 _( v3 c. L+ z
ID : 9
1 E  Q- @$ ], u5 J9 QFormat : PGS
( P6 e4 f' x8 f4 a2 I- UMuxing mode : zlib
) v  p7 m9 T( bCodec ID : S_HDMV/PGS
  z# z8 k7 ^7 c  Q! m2 {" L% o5 SCodec ID/Info : Picture based subtitle format used on BDs/HD-DVDs: G* F( @2 A. A+ s
Duration : 1 h 51 min6 j) f% e* W  F' u6 W1 x, d
Bit rate : 27.8 kb/s  p5 @, F; F& Z
Count of elements : 24696 f9 @8 K" F6 P4 \
Stream size : 22.2 MiB (0%): R& I% @/ h1 u8 ?( ^
Title : Spanish
5 Q/ N: e0 e3 R) `% V* ^' d( R1 |* yLanguage : Spanish5 a# @! `3 A# c+ C9 u# x
Default : No
$ i# x! q! G3 T& BForced : No
& S; h0 h2 k+ \+ w- D
# c0 k" g* Y. S, M$ x8 d( X* i' K

. y5 u- i  T- U" J) YText #7! i& O1 r; |2 N3 K' [) u* B
ID : 102 \. L+ `9 _$ b' d+ U- u
Format : PGS
7 X- h/ {/ c* ZMuxing mode : zlib6 ?" w6 F0 I0 O4 }
Codec ID : S_HDMV/PGS& s$ Y+ Z  H9 \7 R4 p/ K
Codec ID/Info : Picture based subtitle format used on BDs/HD-DVDs
4 Q" X* P% E# d& I3 VDuration : 1 h 51 min6 c  n, j7 R5 [. W& Z& h
Bit rate : 27.1 kb/s) R( A) G3 |# y; P# Q5 w9 e* ^! y) u
Count of elements : 2516
! p. n& B; `# T* V1 d* RStream size : 21.6 MiB (0%)- j; g; B, |7 ?: J" p. E
Title : Spanish
# F/ d! q' A6 L0 {! QLanguage : Spanish
. _# x6 X$ J3 X7 D6 ]- _: N+ F! G. LDefault : No
( A0 I5 I; l' ^9 f- JForced : No! \5 s7 z4 r6 _# X* i4 R! w  n2 K

: Z9 P3 E2 G3 ~

( g" B! Z7 g/ i. w' t! p8 M$ CText #8* a% ?- K% q. L
ID : 11- S) X$ D1 |) m2 @  O; U# t# D( z
Format : PGS
6 L" P9 Y3 |3 r* lMuxing mode : zlib
0 ~& U" l/ j, P7 B  t& R7 `% E# |Codec ID : S_HDMV/PGS
! S6 o; P) b1 U9 T( DCodec ID/Info : Picture based subtitle format used on BDs/HD-DVDs
1 c0 E" ^5 G7 n5 `; N, q1 PDuration : 1 h 48 min8 K) [3 k7 b+ N; v' f: H) c
Bit rate : 29.7 kb/s5 f, E( ?3 \: v
Count of elements : 2468
; x9 B8 a' D5 H" s$ kStream size : 22.9 MiB (0%)
2 P5 T/ u: l; O! z& x+ W9 TTitle : Italian! y9 U! o/ C2 t! u
Language : Italian
3 v- N# k" P( l. ]! i$ cDefault : No
( ^9 S& u6 H" t3 UForced : No
# L/ a  X/ ]' V; \# p; J$ n" h9 k* s/ }
3 G0 H# o* I* h  ~
Text #9; ~) D" h3 _8 y' w" W$ o# _
ID : 124 V5 c  ?) m) i) Q4 k
Format : PGS
% y( ?1 L2 X8 f+ T, [3 ^1 d+ d1 gMuxing mode : zlib
* `; l( G2 I8 CCodec ID : S_HDMV/PGS# U# b! u$ i) z/ ]( h& g( ]
Codec ID/Info : Picture based subtitle format used on BDs/HD-DVDs; t$ y3 Z1 U0 a) E! {1 `
Duration : 1 h 48 min; N" @1 H( \, x: |+ [" D
Bit rate : 32.3 kb/s
/ R6 {+ j) w& `: A0 P* y/ TCount of elements : 2485" I2 ], [2 Z2 ~8 R
Stream size : 25.0 MiB (0%)+ V4 x) E; I% `1 c! U  k% `
Title : German$ M3 [- ?2 z8 f! h' j8 Z
Language : German
/ t( P( A& P& ?# c" Z6 v' ^! K, K& `Default : No
" s1 s$ n' a3 @6 t- c( Q7 @Forced : No' P3 ?* t/ W% e+ C8 E
# G- |9 \9 n# @& E
( [9 @: ?* n1 U0 \  c  y+ z
Text #10+ H0 f/ ?% [2 A$ R& v2 u4 R
ID : 13
* P6 y3 ]: U0 {4 W8 lFormat : PGS
: H$ g" p! a( ?: ]4 r% D2 w6 SMuxing mode : zlib, A0 F1 ?" ?. d2 ?
Codec ID : S_HDMV/PGS
+ K- ?' n9 N( k" |( F( H; Z1 r7 @, X' VCodec ID/Info : Picture based subtitle format used on BDs/HD-DVDs
2 c! {2 W+ V, ~+ i! DDuration : 1 h 47 min" o' t. _; L4 t8 K0 p! [) X$ _
Bit rate : 28.0 kb/s
$ @* P8 F% D: [9 _; QCount of elements : 2355
: S; k4 Z5 H6 @Stream size : 21.7 MiB (0%)7 I8 n5 J4 @) K) l+ J0 v
Title : Dutch
) [; U' M9 n% gLanguage : Dutch  b7 R4 h  j$ P) T5 @
Default : No" {" I, |  }: @. n' h) V! U
Forced : No
( U( L; L8 f; v& P4 R8 j' }* \: l% R
( Z; w2 j5 j. d7 q. I9 H" T

( q4 `3 o$ y9 s3 yText #111 o8 s- `- \6 g2 {! H. q# l2 Z
ID : 14: f# s/ y3 u, C7 T
Format : PGS7 p5 r, d6 o6 [0 R
Muxing mode : zlib
$ O: N, F# t  d9 [0 Y6 d; A1 \& vCodec ID : S_HDMV/PGS
8 ]: E" e/ J; I% a8 oCodec ID/Info : Picture based subtitle format used on BDs/HD-DVDs
5 u: {9 C* s% }) WDuration : 1 h 51 min
  b& R" M6 X: }Bit rate : 23.9 kb/s
" U* p& [) E& m% T. \+ JCount of elements : 18707 P" `) g' {. c9 Z+ w# p0 L
Stream size : 19.0 MiB (0%)
! u( P0 G' x: x( n) D9 Y) h2 ~# T9 z, ?" aTitle : Swedish; d9 h* F7 h: o6 [2 d) |
Language : Swedish
8 x' c+ E* E' j5 T8 \; N$ [; GDefault : No
  Y, [* ~) {# o9 F1 p0 ~Forced : No1 i& n! U) v* a4 [) }2 h, B, B

4 y+ R/ _  W  Z! N4 L
1 m# u) E! N  d/ R
Text #12
; u( Q% L7 V2 G  W  jID : 15) }% _6 C" ^- s9 L4 x
Format : PGS
; ~2 o# z% C# ~: j& v) |Muxing mode : zlib
! ]$ l0 g$ Z  p8 J# lCodec ID : S_HDMV/PGS6 P2 t# A2 s$ E, u
Codec ID/Info : Picture based subtitle format used on BDs/HD-DVDs- f/ G# X9 q# L2 R% d
Duration : 1 h 48 min' G: s: G% u: e- L  C
Bit rate : 23.9 kb/s
. `, L6 T  a: V; XCount of elements : 1832
; O3 x( _: |. c3 hStream size : 18.4 MiB (0%)& g$ [$ T+ g8 y* W* ]% E3 ?
Title : Norwegian
# C( G- G9 \3 kLanguage : Norwegian. T( I5 `/ H% b9 F
Default : No
. c7 F; K' }0 F. B5 aForced : No
5 I' ]2 N; B1 m" s5 p
; s- L1 K1 K: O) ~4 b  U
. O! }6 ^; a$ T  U5 q7 l: K
Text #13& ]2 j* d" u, ^; G0 }
ID : 16
% Y$ p- ~7 {* S  T. O) ]4 sFormat : PGS
- _* P. c: m: Z6 J; b1 E% b" c2 bMuxing mode : zlib/ H* S' p1 R/ f# g
Codec ID : S_HDMV/PGS
0 y9 X4 h; ?" c% {, tCodec ID/Info : Picture based subtitle format used on BDs/HD-DVDs
& v& x& w) `# i. c. U; v" e- @* NDuration : 1 h 48 min5 G7 m! ^0 z7 I& L# t8 f
Bit rate : 25.7 kb/s5 j9 L# R/ r7 b. F* P* `) N& Z
Count of elements : 17632 t6 w4 i5 \7 z1 ^$ h
Stream size : 19.9 MiB (0%)7 ~# I+ n! `# H4 |4 ~9 k
Title : Finnish4 [9 d7 Y5 y8 L$ B. G
Language : Finnish0 m/ {8 M- N9 z
Default : No2 @' w4 |1 Z4 K. `
Forced : No
) v8 N1 a/ }( `- F' i7 q6 M4 x8 H' p# y  ^; j( _

1 ?. z& o2 l+ i  Y. G: B" b( VText #14$ y: K7 i6 T  a& s
ID : 178 @3 y% g8 b2 A+ |1 V+ C8 z
Format : PGS: O' j% j6 s, O& }( H
Muxing mode : zlib
5 {1 \% E0 W; b% J) x- ?* mCodec ID : S_HDMV/PGS+ N4 r: N0 A: V: ]9 z& l
Codec ID/Info : Picture based subtitle format used on BDs/HD-DVDs
+ N# n( M- _9 C0 @, _& bDuration : 1 h 48 min
3 e+ g; k. h! k' KBit rate : 29.6 kb/s" z( }; \' A/ i( @8 Z% ]
Count of elements : 2435, D6 D" F9 _! D0 |+ r. p, L+ ~
Stream size : 22.9 MiB (0%)& z$ H$ U/ Y5 Q0 c5 H$ }
Title : Icelandic
+ K/ J4 ~5 Q2 K# ELanguage : Icelandic7 A4 I; r8 I5 I# T
Default : No7 S# `! k  k- @! a& X) Z
Forced : No; t2 _: X$ b1 x1 O4 p

0 f' \8 ~/ m& N* c/ K5 t

; D# E- N& {6 e/ rText #153 c9 b, R# f3 \  x3 W$ u
ID : 18
' w8 n5 `. k3 v' WFormat : PGS7 L/ c7 J, L/ w- L
Muxing mode : zlib* H& `' V- T1 l$ [
Codec ID : S_HDMV/PGS2 w' O; v4 J/ N! \1 y
Codec ID/Info : Picture based subtitle format used on BDs/HD-DVDs  a9 O: m+ |% S, N7 N5 M7 z
Duration : 1 h 48 min
  d  g0 i3 g  J- V8 R' rBit rate : 25.9 kb/s6 ]& r& Q0 B! Z5 V# D) T
Count of elements : 2467
9 L3 P0 |( b, t# e; _Stream size : 20.0 MiB (0%): N7 B4 B. g- o4 x% t
Title : Czech
2 S7 ^# Z. G- C- oLanguage : Czech) o8 H( B" l  p' U7 C/ }  Z. L& W
Default : No; k' Q$ N. q/ F, E! ^
Forced : No
* o+ q4 _* H8 I. w. B- E$ W; s* J2 P: A7 m
4 N: C6 l* w* E
Text #16+ s6 f  N2 D' ?5 Y9 S
ID : 19
+ R- I# @3 q: |0 zFormat : PGS6 c8 K6 \0 w2 `* e$ D9 F7 U' P$ {
Muxing mode : zlib5 {) H- l; d& O
Codec ID : S_HDMV/PGS
9 e) J, D( O1 W) n' f" d4 e# BCodec ID/Info : Picture based subtitle format used on BDs/HD-DVDs4 N8 d1 [1 [# V# z
Duration : 1 h 48 min
. y* A0 i* T# vBit rate : 24.9 kb/s/ A3 b7 G; X! ^& f) R
Count of elements : 2413
; `4 x, [' G2 g, ?8 L9 rStream size : 19.2 MiB (0%)+ T9 V5 y1 x* g; h1 w
Title : Polish
( j7 |  n6 n% K2 Y5 JLanguage : Polish4 @: h! g, W9 C# w2 N) |+ G
Default : No  W- D% x8 J1 |# K
Forced : No) t# x# G9 J/ }# M# E( `% ]; y  \

) D- z% j; t* h8 e) g- J/ S- Z0 O! H

* P0 x+ s5 V, OText #17
- `# C0 |( z( fID : 20
4 B' e0 m+ {5 ]2 n7 j2 EFormat : PGS8 T6 O' @& n* c) t- ^
Muxing mode : zlib
. u6 T' ?  u, q- N$ V% R* Z6 {1 W' yCodec ID : S_HDMV/PGS! J: ]7 ~) x% t3 j, b% ?4 `2 ?
Codec ID/Info : Picture based subtitle format used on BDs/HD-DVDs8 b; U7 U& x$ h0 X% c8 L4 O
Duration : 1 h 48 min
$ e: y+ z3 J% [+ {6 t( D( z6 XBit rate : 26.3 kb/s6 v; K+ z0 t1 v) d9 ?' ~
Count of elements : 24477 L5 d9 c8 \- B; A$ E9 i! V
Stream size : 20.3 MiB (0%)
+ ?. C7 _8 K" b, u2 oTitle : Hungarian
# j0 |. Y; M) tLanguage : Hungarian( i/ j/ N( y7 h) u3 X4 E
Default : No+ m( g  b5 T5 }" v/ g1 m. m" n* r
Forced : No
& Z; Y8 T$ X& \+ a: e/ H1 r  `5 V3 ~0 F8 o! O7 ?( s
+ f1 R5 ?6 r( X' [4 `
Text #18$ f" o0 \, P) E* l5 n' j) N/ |
ID : 215 _# G$ e- @8 _, P$ c
Format : PGS
& B  C# R! X5 L3 k6 S' F# iMuxing mode : zlib
% W3 p1 B( T; c2 r) s- y7 nCodec ID : S_HDMV/PGS9 K5 s# F- l  ~! e+ @. v
Codec ID/Info : Picture based subtitle format used on BDs/HD-DVDs% P: L) Z: M4 p+ R7 _( ]
Duration : 1 h 51 min
( j6 m3 G) R" E9 FBit rate : 26.9 kb/s
5 P  \, D# v$ H' f" ICount of elements : 2501# [' i  l+ O& }* ]; ?6 @5 z" |
Stream size : 21.4 MiB (0%)* ?$ n0 X2 v# l, i+ ~! f1 q6 \0 ]0 f
Title : Croatian+ D& E7 I- D2 B8 l' F% [6 ^
Language : Croatian
# [1 S5 x3 [% A4 B+ v# ~% O8 Y1 UDefault : No
- ?9 q2 C2 I5 Z3 A0 hForced : No
8 t2 Y, U6 S& c& t0 J( o. k" Y( M  f; \6 d3 p; n

/ K6 N9 C( Y" M6 X3 uText #19
5 P' R7 U& A. RID : 22
: v2 h) R* F# Q, T# `Format : PGS$ R! G: _4 F9 W& c# g& q
Muxing mode : zlib
( N* v- V" R8 }" D$ VCodec ID : S_HDMV/PGS
" T0 y; v6 T0 t8 SCodec ID/Info : Picture based subtitle format used on BDs/HD-DVDs
: v: q" r, X3 @/ ODuration : 1 h 49 min5 b0 a' [. o, s. i
Bit rate : 28.6 kb/s- f! J" }3 P5 N+ g. }
Count of elements : 25113 n! I  q" {% e, ?
Stream size : 22.5 MiB (0%)
" Z0 F( E3 v* j1 hTitle : Bulgarian. Z  T( e" V' p! s+ L+ l
Language : Bulgarian0 C- z+ ^( B. g& ^# |  j# ]
Default : No, \# n0 w# C/ U8 W; p/ n1 I4 V
Forced : No) t5 E/ ?. V) L1 V& L* v' G

& K7 h6 O5 g+ S% ^. r- e
: ?( I6 m+ o# z' u
Text #20
1 i: `/ j* _  T" ?0 R; ?& zID : 231 c7 G2 x9 f& S9 h! H) o% y5 q9 e
Format : PGS
  ^- a/ h0 ]. O4 h8 m' d$ e6 NMuxing mode : zlib
- `, l: i2 k. k5 K4 [' GCodec ID : S_HDMV/PGS
8 G3 o/ P: c2 g2 ]% KCodec ID/Info : Picture based subtitle format used on BDs/HD-DVDs; U5 ]& y3 Z/ J# Q" Q. b
Duration : 1 h 48 min9 J+ S$ S' d" J# s9 Q& O
Bit rate : 29.4 kb/s+ a0 z2 N0 s6 G0 Z8 B* x7 ~
Count of elements : 2469
2 ^# G5 }: s4 ^& A! m: m4 ?Stream size : 22.7 MiB (0%)4 u" \. H- E' W$ }6 o
Title : Greek$ A7 [; B, M2 P$ b, s
Language : Greek
5 k( S9 u" W* n% A9 I$ E- g6 T( GDefault : No
+ g; @" R# a( s: H, A( ZForced : No0 @& d/ H4 f3 [, h* m

+ [% u4 G$ G: K# L
9 x5 \" E- \3 O" C4 F4 ^: M& n
Text #21: P8 y' U& o# b* E) o
ID : 244 [# Y% n$ z% m( D
Format : PGS0 a, Z/ K7 Y7 ^7 F1 q) t- ?* y
Muxing mode : zlib
  {# q  y- X3 y. X- YCodec ID : S_HDMV/PGS
! Z/ o0 N  _! y. N# kCodec ID/Info : Picture based subtitle format used on BDs/HD-DVDs/ Q$ Q$ ^6 s; Y2 L- _  l
Duration : 1 h 47 min* z1 z5 I" F- K9 R9 e
Bit rate : 29.4 kb/s' {* `- X) v! s
Count of elements : 2421
/ `0 s: F/ |3 x) LStream size : 22.7 MiB (0%)
9 m0 _9 r/ \7 CTitle : Turkish; ~% J' [- t4 I+ }$ K. ^
Language : Turkish2 e8 y/ l# {2 H2 ~) H. m+ f' y/ s
Default : No
* s: w1 n1 J' ~+ lForced : No
7 S( |1 v4 X) T2 j- G% n* j/ \: h, n
0 f' y+ M1 L) {" D( t# E
  E, o3 C# J5 d( v! m! D& g/ F
Text #22; P" }6 m8 @, H2 f7 j- [9 H& |
ID : 251 V6 [6 m1 V: [, q1 u+ ]! o
Format : PGS9 A" g6 N0 l  s
Muxing mode : zlib) j$ v+ j3 Z: _
Codec ID : S_HDMV/PGS
# ^3 q7 m5 Y) QCodec ID/Info : Picture based subtitle format used on BDs/HD-DVDs
( ?4 d$ |2 C9 X% ^5 V/ H8 cDuration : 1 h 47 min
/ U# r! |# d! A; zBit rate : 16.3 kb/s
4 E1 F! a6 [5 \# s) ~  R* mCount of elements : 24259 u$ `  t/ Y( z" Z4 J
Stream size : 12.6 MiB (0%)
  ?, K8 m4 Z* d& K( d+ L6 |+ q9 NTitle : Arabic
2 w% x4 C% d" N; J" z$ E/ [Language : Arabic
8 r+ p! q* `; [Default : No
0 U3 m  W% c  p9 p% l+ ~% rForced : No
! A$ D* g0 X- v- n' ~: w4 _4 n% V( E2 x: W0 C
$ a/ J( Y$ S8 @. ^, Z& \* D' h+ i- i
Text #23
) i2 c/ b$ I6 {7 oID : 26
% t: h$ ]$ G! E" VFormat : PGS
# U" U/ X5 H, T) QMuxing mode : zlib
3 z8 c% B/ B2 ~+ MCodec ID : S_HDMV/PGS
1 I0 {! y. K" l$ jCodec ID/Info : Picture based subtitle format used on BDs/HD-DVDs) W: x0 r0 e) c- i4 i6 ~) W2 _
Duration : 1 h 47 min6 q7 {5 w! o9 X9 B) Z; I
Bit rate : 22.1 kb/s5 h2 E2 C- E5 c( X( D% w9 n
Count of elements : 2435' {0 K% X/ ?! y9 s# E
Stream size : 17.1 MiB (0%)' x5 w. \" t. p" O
Title : Hebrew8 C2 H& P4 v- {3 z& H
Language : Hebrew5 I2 F9 a5 b" {  l$ m, H
Default : No
$ k# z3 K* E( k9 {& D3 DForced : No
! K2 f0 n8 S) v/ z3 C0 P5 i3 k
7 I1 g5 k2 H( S; z6 P

. n$ G; A+ M4 u( Y6 s3 SText #24
- Z1 J" s- F5 Y+ q  J, RID : 273 R5 A# b0 L1 s( A3 g
Format : PGS8 X( @: a' j+ Z: O( ~
Muxing mode : zlib
7 `2 e6 Y; U; j' D) b7 hCodec ID : S_HDMV/PGS
5 I2 ^* [( }& M/ g$ s: l* UCodec ID/Info : Picture based subtitle format used on BDs/HD-DVDs
0 x6 r% e' R. f3 U# F2 d( Y. n" R5 {' LDuration : 1 h 51 min
) Q/ b( P4 i0 J* k, M/ q/ |Bit rate : 21.2 kb/s
# m/ [2 G7 [( k7 U1 WCount of elements : 22063 \3 p) n9 Q0 x4 `0 U8 V& o8 U
Stream size : 16.9 MiB (0%)& v- R# _; \% |& d$ p9 r/ l
Title : Japanese
2 p$ x5 n* K- B0 v; a4 l- gLanguage : Japanese0 X5 z6 A% k" ^# W- }, X
Default : No- M! `6 f! S. v4 J3 z
Forced : No
+ m" w6 L0 `# y) k* H2 V' ^
3 }7 L, f7 B9 D6 H% ]4 u$ Q
9 X: d0 R, W0 u7 \& c* H! W6 P7 a: i
Text #25
+ [$ C- i' ~# A# eID : 28
/ O/ ^  I7 M7 d. H3 BFormat : PGS9 `+ I, [2 [% Y- I3 z: l5 a# u1 x
Muxing mode : zlib
' r$ a- R' C" U1 K9 ^Codec ID : S_HDMV/PGS
" I+ `6 J- g7 e) O3 ~2 vCodec ID/Info : Picture based subtitle format used on BDs/HD-DVDs0 O$ r+ v) d6 V# B+ P' x1 n' s
Duration : 1 h 51 min3 U( |5 ^- w' h. b) Y0 o) \! s
Bit rate : 27.9 kb/s
0 l& i, n, L' \Count of elements : 2511+ M7 ^+ Q0 [" e( K" w. ?  ?8 W
Stream size : 22.2 MiB (0%): h( y/ ~4 a+ ?- A8 Z3 ~8 b
Title : Chinese
1 a% [' N3 W& |! ^  {5 }Language : Chinese& h& E2 z: l, {2 t5 j
Default : No. U) H& v% z1 E  w- c7 ?+ ?
Forced : No  T  |# X: Y2 o3 H- t& A1 H
! N+ g( C. x- T1 o& d

0 ~0 s( R2 R# z4 u; eText #26# A" G* m( h4 T* Q) h2 j
ID : 291 W/ j- Q  ?1 [2 E7 L% ^. o
Format : PGS
0 Z' g$ x0 P* UMuxing mode : zlib' X$ q3 {: f# R% T- ?% L2 V6 {
Codec ID : S_HDMV/PGS
) Z; a% v, a; H# b4 {" kCodec ID/Info : Picture based subtitle format used on BDs/HD-DVDs
2 x) i% w$ V* K7 Q3 ]Duration : 1 h 51 min& Q5 t. G9 a! g. i
Bit rate : 27.2 kb/s7 B6 W3 R0 w9 W2 c; r
Count of elements : 2511- r! }! z, f0 J* u* K8 j1 W7 \
Stream size : 21.7 MiB (0%)
% p, k1 t' w& q$ c  x6 B6 z" mTitle : Chinese
' q5 o( C* S- Q/ t: M& h, a- QLanguage : Chinese3 `1 \* f' A( y- ^5 n% R
Default : No
2 t+ L# g  m8 t+ v* N- qForced : No
1 o9 c3 ^/ a  g1 Q$ V0 f, |2 }

7 V6 x1 F' d+ Y; F2 z蓝光高清网提示您  点击下方附件名称即可开始下载
+ ]6 [3 c0 ]0 s4 b7 \+ E3 e
5 i9 n$ z: [8 y  S( B
( h; M# E% n5 l3 I. W
的士司机(港) / 计程车司机(台) / 出租汽车司机/出租车司机4k Taxi.Driver.1976.2160p.UHD.BluRay.x265.10bit.HDR.DTS-HD.MA.5.1-4k电影下载
, b& n, W$ n' s" U- J7 ~
# o9 v# {* _# S, D) g, z$ }出租车司机4k Taxi.Driver.1976.2160p.UHD.BluRay.x265.10bit.HDR.DTS-HD.MA.5.1【33.45 GB】【自带中字】
+ v8 ]! I  I( p" R 出租车司机4k Taxi.Driver.1976.2160p.UHD.BluRay.x265.10bit.HDR.DTS-HD.MA.5.torrent (大小:42.6 KB) 4 }" X. L6 v# z, A1 ^) G
  R, n! u) j3 `- _, D/ K- Q
回复

使用道具 举报

精彩评论1

slj602手机认证 发表于 2021-9-19 21:06:55 | 显示全部楼层
感谢楼主发帖
回复 支持 反对

使用道具 举报

您需要登录后才可以回帖 登录 | 立即注册

本版积分规则

烧友之家(蓝光高清网)本站内容部分由用户自主分享和转载自互联网,转载目的在于传递更多信息,并不代表本网赞同其观点和对其真实性负责。 如有侵权、违反国家法律政策行为,请联系我们,我们会第一时间及时清除和处理!
蓝光高清网 综合资讯平台
关注我们
  • 官方微信公众号
  • 扫码下载官方APP

X3.4 Licensed© 2001-2013 蓝光高清网 烧友之家APP |网站地图