游客您好
第三方账号登陆
  • 点击联系客服

    在线时间:9:00-18:00

    客服QQ

    1371333023

    电子邮件

    lanniao@1080pro.net
  • 烧友之家APP

    随时掌握烧友资讯

  • 扫描二维码

    关注微信公众号

推荐阅读
蓝鸟
未知星球 | 未知职业
  • 关注0
  • 粉丝2
  • 帖子95993
精选帖子
开启左侧

[其他电视剧] 回到椽子上 4k Back.To.The.Rafters.S01.2160p.AMZN.WEB-DL.x265.8bit.SDR.DDP5.1美剧下载—21.39 GB

[复制链接]
蓝鸟 发表于 2021-9-19 09:14:51 | 显示全部楼层 |阅读模式 打印 上一主题 下一主题
回到椽子上

状态:第一季(完结)
上映时间:2021-09-17
类型:剧情 爱情 家庭 
地区:其他
导演:Lynne Hegarty / Catherine Millar / 杰瑞米·西姆斯
主演:瑞贝卡·吉布尼 / 艾瑞克·托马森 / 休·谢尔丹 / Willow Speers / Haiha Le
画质标准:4K(3840x2160) 封装音轨:MKV 音轨编码:其他DD
豆瓣评分:
剧情简介
  我们上次见到拉夫特一家已经六年了。戴夫和朱莉带着最小的女儿鲁比在乡下开创了新的生活,而年长的孩子们面临着新的挑战,爷爷泰德也在努力寻找自己的位置。由于戴夫享受着新获得的自由,朱莉必须协调好自己对家庭的责任....
影片参数
回到椽子上4k Back.To.The.Rafters.S01.2160p.AMZN.WEB-DL.x265.8bit.SDR.DDP5.1美剧信息
Video
ID : 1
Format : HEVC
Format/Info : High Efficiency Video Coding
Format profile : Main@L5@Main
Codec ID : V_MPEGH/ISO/HEVC
Duration : 46 min 17 s
Bit rate : 12.2 Mb/s
Width : 3 840 pixels
Height : 2 160 pixels
Display aspect ratio : 16:9
Frame rate mode : Constant
Frame rate : 25.000 FPS
Standard : NTSC
Color space : YUV
Chroma subsampling : 4:2:0
Bit depth : 8 bits
Bits/(Pixel*Frame) : 0.059
Stream size : 3.95 GiB (95%)
Writing library : x265 2.9_elemental+1-9e0607aa5b6f:[Linux][GCC 4.8.5][64 bit] 8bit+10bit+12bit
Encoding settings : cpuid=1111039 / frame-threads=2 / wpp / no-pmode / no-pme / psnr / ssim / log-level=2 / csv / csv-log-level=2 / input-csp=1 / input-res=3840x2160 / interlace=0 / total-frames=0 / level-idc=50 / high-tier=1 / uhd-bd=0 / ref=5 / no-allow-non-conformance / no-repeat-headers / annexb / no-aud / no-hrd / info / hash=0 / no-temporal-layers / no-open-gop / min-keyint=64 / keyint=125 / gop-lookahead=0 / bframes=8 / b-adapt=2 / b-pyramid / bframe-bias=0 / rc-lookahead=125 / lookahead-slices=4 / scenecut=0 / radl=0 / no-intra-refresh / ctu=64 / min-cu-size=8 / rect / amp / max-tu-size=32 / tu-inter-depth=4 / tu-intra-depth=4 / limit-tu=4 / rdoq-level=2 / dynamic-rd=0.00 / no-ssim-rd / signhide / tskip / nr-intra=100 / nr-inter=600 / no-constrained-intra / strong-intra-smoothing / max-merge=3 / limit-refs=3 / limit-modes / me=3 / subme=3 / merange=57 / temporal-mvp / weightp / weightb / no-analyze-src-pics / deblock=0:0 / no-sao / no-sao-non-deblock / rd=4 / no-early-skip / no-rskip / no-fast-intra / tskip-fast / no-cu-lossless / b-intra / no-splitrd-skip / rdpenalty=0 / psy-rd=4.00 / psy-rdoq=10.00 / no-rd-refine / no-lossless / cbqpoffs=0 / crqpoffs=0 / rc=crf / crf=25.0 / qcomp=0.60 / qpstep=1 / stats-write=0 / stats-read=0 / vbv-maxrate=15000 / vbv-bufsize=20000 / vbv-init=0.9 / crf-max=0.0 / crf-min=0.0 / ipratio=1.10 / pbratio=1.00 / aq-mode=0 / aq-strength=1.50 / no-cutree / zone-count=0 / no-strict-cbr / qg-size=32 / rc-grain / qpmax=69 / qpmin=0 / const-vbv / sar=1 / overscan=0 / videoformat=2 / range=0 / colorprim=1 / transfer=1 / colormatrix=1 / chromaloc=0 / display-window=0 / max-cll=0,0 / min-luma=0 / max-luma=255 / log2-max-poc-lsb=8 / vui-timing-info / vui-hrd-info / slices=1 / opt-qp-pps / no-opt-ref-list-length-pps / no-multi-pass-opt-rps / scenecut-bias=0.05 / no-opt-cu-delta-qp / no-aq-motion / no-hdr / no-hdr-opt / no-dhdr10-opt / no-idr-recovery-sei / analysis-reuse-level=5 / scale-factor=0 / refine-intra=0 / refine-inter=0 / refine-mv=0 / no-limit-sao / ctu-info=0 / no-lowpass-dct / refine-mv-type=0 / copy-pic=1 / max-ausize-factor=1.0 / no-dynamic-refine / no-single-sei
Default : Yes
Forced : No
Color range : Limited
Color primaries : BT.709
Transfer characteristics : BT.709
Matrix coefficients : BT.709


Audio
ID : 2
Format : E-AC-3
Format/Info : Enhanced AC-3
Commercial name : Dolby Digital Plus
Codec ID : A_EAC3
Duration : 46 min 17 s
Bit rate mode : Constant
Bit rate : 640 kb/s
Channel(s) : 6 channels
Channel layout : L R C LFE Ls Rs
Sampling rate : 48.0 kHz
Frame rate : 31.250 FPS (1536 SPF)
Compression mode : Lossy
Stream size : 212 MiB (5%)
Title : English
Language : English
Service kind : Complete Main
Default : No
Forced : No


Text #1
ID : 3
Format : UTF-8
Codec ID : S_TEXT/UTF8
Codec ID/Info : UTF-8 Plain Text
Duration : 45 min 28 s
Bit rate : 76 b/s
Count of elements : 874
Stream size : 25.4 KiB (0%)
Title : SDH
Language : English
Default : No
Forced : No


Text #2
ID : 4
Format : UTF-8
Codec ID : S_TEXT/UTF8
Codec ID/Info : UTF-8 Plain Text
Duration : 46 min 3 s
Bit rate : 69 b/s
Count of elements : 811
Stream size : 23.6 KiB (0%)
Title : Latin America
Language : Spanish
Default : No
Forced : No


Text #3
ID : 5
Format : UTF-8
Codec ID : S_TEXT/UTF8
Codec ID/Info : UTF-8 Plain Text
Duration : 46 min 3 s
Bit rate : 70 b/s
Count of elements : 812
Stream size : 23.7 KiB (0%)
Language : Spanish
Default : No
Forced : No


Text #4
ID : 6
Format : UTF-8
Codec ID : S_TEXT/UTF8
Codec ID/Info : UTF-8 Plain Text
Duration : 46 min 3 s
Bit rate : 64 b/s
Count of elements : 811
Stream size : 21.8 KiB (0%)
Title : Brazilian
Language : Portuguese
Default : No
Forced : No


Text #5
ID : 7
Format : UTF-8
Codec ID : S_TEXT/UTF8
Codec ID/Info : UTF-8 Plain Text
Duration : 45 min 53 s
Bit rate : 67 b/s
Count of elements : 666
Stream size : 22.9 KiB (0%)
Language : German
Default : No
Forced : No


Text #6
ID : 8
Format : UTF-8
Codec ID : S_TEXT/UTF8
Codec ID/Info : UTF-8 Plain Text
Duration : 46 min 3 s
Bit rate : 67 b/s
Count of elements : 810
Stream size : 22.7 KiB (0%)
Language : French
Default : No
Forced : No


Text #7
ID : 9
Format : UTF-8
Codec ID : S_TEXT/UTF8
Codec ID/Info : UTF-8 Plain Text
Duration : 46 min 3 s
Bit rate : 70 b/s
Count of elements : 814
Stream size : 23.9 KiB (0%)
Title : Simplified
Language : Chinese
Default : No
Forced : No


Text #8
ID : 10
Format : UTF-8
Codec ID : S_TEXT/UTF8
Codec ID/Info : UTF-8 Plain Text
Duration : 46 min 3 s
Bit rate : 65 b/s
Count of elements : 814
Stream size : 22.1 KiB (0%)
Title : Traditional
Language : Chinese
Default : No
Forced : No


Text #9
ID : 11
Format : UTF-8
Codec ID : S_TEXT/UTF8
Codec ID/Info : UTF-8 Plain Text
Duration : 46 min 3 s
Bit rate : 120 b/s
Count of elements : 814
Stream size : 40.5 KiB (0%)
Language : Arabic
Default : No
Forced : No


Text #10
ID : 12
Format : UTF-8
Codec ID : S_TEXT/UTF8
Codec ID/Info : UTF-8 Plain Text
Duration : 46 min 3 s
Bit rate : 70 b/s
Count of elements : 812
Stream size : 23.6 KiB (0%)
Language : Czech
Default : No
Forced : No


蓝光高清网提示您  点击下方附件名称  马上开始下载


多版本下载时请注意区分


回到椽子上4k Back.To.The.Rafters.S01.2160p.AMZN.WEB-DL.x265.8bit.SDR.DDP5.1美剧下载


回到椽子上4k Back.To.The.Rafters.S01.2160p.AMZN.WEB-DL.x265.8bit.SDR.DDP5.1【21.39 GB】【自带中字】
回到椽子上4k Back.To.The.Rafters.S01.2160p.AMZN.WEB-DL.x265.8bit.SDR.DDP5.torrent (大小:27.86 KB)


回到椽子上4k Back.To.The.Rafters.S01.2160p.AMZN.WEB-DL.x265.10bit.HDR10Plus.DDP5.1【28.98 GB】【自带中字】

回到椽子上4k Back.To.The.Rafters.S01.2160p.AMZN.WEB-DL.x265.10bit.HDR10Pl.torrent (大小:37.38 KB)
加入蓝光高清网VIP会员  无限制下载本站所有资源---点这里

资源下载、资源播放、字幕使用、无法下载等常见问题---点这里
回复

使用道具 举报

精彩评论1

sinoivanlee手机认证 发表于 2021-10-2 14:35:25 | 显示全部楼层
哇哦!很不错的喜剧呀
回复 支持 反对

使用道具 举报

您需要登录后才可以回帖 登录 | 立即注册

本版积分规则

烧友之家(蓝光高清网)本站内容部分由用户自主分享和转载自互联网,转载目的在于传递更多信息,并不代表本网赞同其观点和对其真实性负责。 如有侵权、违反国家法律政策行为,请联系我们,我们会第一时间及时清除和处理!
蓝光高清网 综合资讯平台
关注我们
  • 官方微信公众号
  • 扫码下载官方APP

X3.4 Licensed© 2001-2013 蓝光高清网 烧友之家APP |网站地图