蓝光高清网

开启左侧

黑寡妇 Black.Widow.2021.IMAX.1080p.3D.BluRay.Half-SBS.x264.DTS-HD.MA.7.1-FGT 17.43G

  [复制链接]

2021-10-24 14:25:54 65157 44

蓝鸟 发表于 2021-9-22 09:33:16 |阅读模式

蓝鸟 楼主

2021-9-22 09:33:16

黑寡妇
片长: 133分钟 ( 2021年上映)
类型:动作 科幻 冒险 
导演:凯特·绍特兰
主演:斯嘉丽·约翰逊 / 弗洛伦丝·皮尤 / 蕾切尔·薇兹 / 大卫·哈伯 / 艾尔·安德森
3 D 格式:hsbs half-ou sbs 

封装音轨:DTS-HD.MA 7.1 
豆瓣评分:6.3分
简       介# Z: J5 U7 F& U5 S$ z+ }
6 \7 q; ~& a! n
  一部充满动作戏的间谍惊悚片。娜塔莎·罗曼诺夫/黑寡妇遭遇与她的过去相关的一场危险阴谋,将直面自己那些更为黑暗的经历。一股不惜一切要击倒她的力量袭来,娜塔莎必须面对自己在成为复仇者的很久之前那作为间谍的过往,和曾远离的破碎关系。
. m! H, H4 j% G- Y4 b, I1 m8 {% e/ r0 R) t5 i# M+ i: u7 o; r" a) K
4 a$ b$ {' o# L8 i9 j4 a
获奖情况
% s4 |) R- J9 G1 S( D8 w  第7届豆瓣电影年度榜单 ?(2020)
8 }7 l, g# Z6 Z  最值得期待的外语电影
& v% F% t% Z, z- w  
9 g' r# E* \/ y- J6 e  第6届豆瓣电影年度榜单 ?(2019)
& E' j7 ?# V5 k5 ^) ^3 V  最值得期待的外语电影
( o, ^0 j/ B9 Q- @  ~

5 O5 d, o6 ]& W2 X

! f, u$ B5 m( v# y影片参数
; t8 H5 Q) W* l. E  M+ I# @7 P- `
Video3 D5 _6 a7 T" |5 G& {
ID                                       : 1% ]9 A. L5 C6 Y4 C9 ?1 z5 \4 J
Format                                   : AVC2 M+ T; C* z: o/ \7 \( w
Format/Info                              : Advanced Video Codec
, f: l6 u2 u( zFormat profile                           : [email protected]
! H  [% K( E0 Q+ r8 `' uFormat settings                          : CABAC / 3 Ref Frames  e& x6 L# r( A# P+ u8 O9 W
Format settings, CABAC                   : Yes# b1 T- o/ g$ A% b2 _0 s
Format settings, Reference frames        : 3 frames+ h7 M9 ^( M- h  ]3 F; [1 h& ~
Codec ID                                 : V_MPEG4/ISO/AVC
; ~9 u/ N- A1 j# d+ H* QDuration                                 : 2 h 13 min/ A# F! d1 [* G
Bit rate                                 : 13.6 Mb/s/ S" L  H  E8 p3 [% h- }+ _( k
Nominal bit rate                         : 15.5 Mb/s
  h" T% R$ a3 a5 @$ L  gWidth                                    : 1 920 pixels) Q( d* U0 {' t( _5 N
Height                                   : 1 080 pixels! @1 m& Q' [6 ~4 _4 _& c
Display aspect ratio                     : 16:9
5 g$ F; S, `& [/ }* XFrame rate mode                          : Constant
: W) i3 i! J) G: y2 X8 v* I9 y1 JFrame rate                               : 23.976 (24000/1001/189150) FPS
2 d; p! f7 |4 S2 c* x. d2 i3 fColor space                              : YUV
* c7 {0 \: M) K6 F/ z) n  j& bChroma subsampling                       : 4:2:0; u5 R5 a$ C  R6 b/ p1 e/ q
Bit depth                                : 8 bits
& e3 b+ Z/ C# P" V1 Y' `3 \Scan type                                : Progressive
  t9 D  E2 x8 \9 l- }9 lBits/(Pixel*Frame)                       : 0.2742 T# a; z' n5 T
Stream size                              : 12.7 GiB (73%)8 I  [5 e: F8 n$ {& v1 d7 C* U: c( Z
Writing library                          : x264 core 148/ q6 I# E5 o1 p# c$ ]& a& m& Y4 L! Z
Encoding settings                        : cabac=1 / ref=3 / deblock=1:-1:-1 / analyse=0x3:0 / me=hex / subme=5 / psy=1 / psy_rd=1.00:0.00 / mixed_ref=0 / me_range=16 / chroma_me=1 / trellis=1 / 8x8dct=1 / cqm=0 / deadzone=21,11 / fast_pskip=0 / chroma_qp_offset=0 / threads=48 / lookahead_threads=8 / sliced_threads=0 / nr=0 / decimate=1 / interlaced=0 / bluray_compat=0 / constrained_intra=0 / bframes=2 / b_pyramid=0 / b_adapt=1 / b_bias=0 / direct=1 / weightb=0 / open_gop=0 / weightp=0 / keyint=24 / keyint_min=2 / scenecut=40 / intra_refresh=0 / rc_lookahead=6 / rc=cbr / mbtree=0 / bitrate=15500 / ratetol=1.0 / qcomp=0.60 / qpmin=0 / qpmax=69 / qpstep=4 / vbv_maxrate=15500 / vbv_bufsize=15500 / nal_hrd=none / filler=0 / ip_ratio=1.40 / pb_ratio=1.30 / aq=1:1.00
3 w2 y! N- f. C3 ]. F6 wDefault                                  : Yes
8 o2 U( w0 a* B: fForced                                   : No
  d6 g+ U4 c7 n1 B+ A8 |  vColor range                              : Limited/ p8 Z2 o; F( F0 M* \+ c
Color primaries                          : BT.709; e+ j% H( U- _8 ?
Transfer characteristics                 : BT.709+ M$ a; `7 _; T& k. c) ?
Matrix coefficients                      : BT.709. n( e2 w# B5 o' |/ k2 M
Audio
! ~6 Z% l6 g1 M& t. q# `ID                                       : 2  F. c/ [1 X: e9 Q  n9 W. _
Format                                   : DTS XLL5 `9 s9 h% p4 R2 L4 o
Format/Info                              : Digital Theater Systems0 o, B. b  E  T
Commercial name                          : DTS-HD Master Audio
6 p( @/ a  C+ Z$ S9 b3 S; P" mCodec ID                                 : A_DTS) k& h" M; O& A+ t) _  h
Duration                                 : 2 h 13 min) z( Z; F( D- Y. p" U" r
Bit rate mode                            : Variable
6 D$ }, ?: X4 P9 O' T0 [# }6 MBit rate                                 : 5 027 kb/s
( G5 z% d, i% j; I; }Channel(s)                               : 8 channels
7 t5 B7 B6 G0 cChannel layout                           : C L R LFE Lb Rb Lss Rss1 k- ]- d# I' e' e) x
Sampling rate                            : 48.0 kHz1 F2 K+ x$ k) x% y9 h0 o
Frame rate                               : 93.750 FPS (512 SPF). g: F6 J2 y1 g; {: U+ F) n
Bit depth                                : 24 bits% d( D( L& J7 j3 ], O/ k3 L6 V8 M
Compression mode                         : Lossless
0 E; e+ o( o8 B! R1 x. {4 DStream size                              : 4.70 GiB (27%)
0 t2 O  c1 P6 c' [. d/ N' B5 fTitle                                    : DTS-HD MA 7.1; t7 }. o5 h  C7 N' @0 }# A, k
Language                                 : English
# E& d9 {# `8 P5 F5 _Default                                  : Yes6 n2 ]2 Q3 n; [/ P
Forced                                   : No
) r9 K' l. T, {% J- N0 p5 f# s* LText #1
' q1 c0 q+ j1 Q( W  Y- c! YID                                       : 3
1 ~4 M9 X' l/ Z& S+ Z; X& \" e+ mFormat                                   : PGS4 F3 @8 Z8 |) W# M+ h$ f  F; V5 t
Muxing mode                              : zlib+ X4 {# Z2 n+ g& A, A
Codec ID                                 : S_HDMV/PGS
: v7 z6 ?+ v2 t' m9 |5 WCodec ID/Info                            : Picture based subtitle format used on BDs/HD-DVDs% e/ U4 e& q  D, U8 Y5 b
Duration                                 : 2 h 12 min8 j7 ^* {! D& O4 v& f' Z  k
Bit rate                                 : 34.3 kb/s, [1 X' @5 n& \# ]4 V1 X
Count of elements                        : 2584: U" K. A# u; X* _4 }
Stream size                              : 32.5 MiB (0%)2 A+ v, c7 ~+ N  E( ]
Language                                 : English0 e% j7 ?/ U) B; y0 A9 Z; l# \
Default                                  : Yes
& b4 P. S, R5 cForced                                   : No
; ]. c* q1 E& s0 @$ ^$ _Text #21 X) F& r- a) T: }' j! N4 T
ID                                       : 4
+ o5 o& _7 c0 F- [4 e) EFormat                                   : PGS
  N1 A* B& B% A8 s" }- CMuxing mode                              : zlib
/ i) _; t% N, N( wCodec ID                                 : S_HDMV/PGS
% e# W% F/ z' wCodec ID/Info                            : Picture based subtitle format used on BDs/HD-DVDs. E) I/ k# N' z$ Z
Duration                                 : 2 h 12 min: K, V8 I  ?! T$ f. @, O2 @
Bit rate                                 : 26.5 kb/s
! S& f, Y4 _* x1 w: i# eCount of elements                        : 2512, l! C9 y+ D( }' W( |8 W
Stream size                              : 25.1 MiB (0%)
# o) \/ w: a; t$ R5 GLanguage                                 : Japanese
  z! o* j5 e: E5 ~* HDefault                                  : No7 t1 ^' O1 t* s; P1 X
Forced                                   : No
4 M6 s, \4 [; w- g; g, F+ o4 oMenu
0 R+ f+ f/ C, y/ T0 u00:00:00.000                             : Chapter 01
- y0 ]5 ]6 }0 n) K1 g0 `8 W) Y00:04:55.170                             : Chapter 02* ?& R" D( n' o" f) _) w' C
00:13:10.081                             : Chapter 03
) |2 Q+ O9 _% e00:16:24.567                             : Chapter 04
4 s- o! j- ?+ |00:18:41.871                             : Chapter 050 B& J, n* h! D, }2 i( Z
00:21:41.634                             : Chapter 06' P  y$ \/ z$ d
00:25:40.789                             : Chapter 07  b/ a* ^" ]7 l5 [& d
00:30:06.346                             : Chapter 086 `7 G" V  u6 ~% F. I3 k% I2 i( B! U- q
00:39:05.468                             : Chapter 09( f& @- W/ b, H  g( R* q6 }- [& F
00:44:46.350                             : Chapter 10
5 z0 g* K0 ?" }7 [- y2 G  d00:53:25.994                             : Chapter 11
# T/ B" f3 Z6 i* R01:01:38.153                             : Chapter 12
7 x: ~0 f$ f* ]$ Q" T01:07:46.271                             : Chapter 13
5 M: B! }* B, L* Z) Y4 ?) a01:11:40.671                             : Chapter 14
# q  I/ i% f0 _! B, V" b; c01:17:48.789                             : Chapter 15
5 u8 w1 ]- c1 q7 G& b9 J8 Q0 j# `01:27:19.234                             : Chapter 16
6 b, l2 |- h) X7 c01:33:33.441                             : Chapter 17
2 e. H! _+ {* I) m5 z* K01:37:37.477                             : Chapter 18* [+ K% q0 J' N: e' w1 Y% H
01:41:18.656                             : Chapter 19
& k+ @6 d) J8 b7 @7 Q! i01:45:37.873                             : Chapter 20
& [3 ~- S+ g  Z8 S$ D1 C4 L01:51:41.653                             : Chapter 21
1 Q# s( {+ I: C* Z- }2 V! B1 z9 D01:57:09.105                             : Chapter 22. b1 \- h) w$ @# s3 u
02:01:59.687                             : Chapter 23
# F+ g" i1 \0 _- H6 Q0 s02:04:25.458                             : Chapter 24

) {; J0 F- |. X  u  B6 r6 v5 ^; ?6 A. ]' x* m3 H. ^
207c90fcc96fd260fb7b4a31ac329fa3.png
" ^7 I4 `4 P1 z) r: a( g 10d61d64ccb791f266d0c10111bcbd0f.png : T9 P+ k8 ~2 ]
5a34fee8a91567e5830be84a9eac10f4.png

7 M& C3 v% u, L9 u/ |, O( ]0 ^6 F
, H; M4 e8 B  r7 b( F+ H$ s

( B8 [3 a3 b" v蓝光高清网提示您  点击下方附件名称  马上开始下载! K% B* t) G$ d2 `! F4 v$ @

' E% J4 x6 {  x多版本下载时请注意区分3 r7 k; [0 u3 w' F
6 A: ~/ l2 z1 h6 h' E
黑寡妇 Black.Widow.2021.IMAX.1080p.3D.BluRay.Half-SBS.x264.DTS-HD.MA.7.1-FGT 17.43GB8 K1 u3 U" _- A+ |
Black.Widow.2021.IMAX.1080p.3D.BluRay.Half-SBS.x264.DTS-HD.MA.7.1-FGT.torrent (22.45 KB)
加入蓝光高清网VIP会员  无限制下载本站所有资源---点这里

资源下载、资源播放、字幕使用、无法下载等常见问题---点这里
回复

使用道具 举报

全部回复44

wuruhui手机认证 发表于 2021-9-25 21:04:49 来自手机

wuruhui 沙发

2021-9-25 21:04:49

感谢分享!!!!!!
回复 支持 反对

使用道具 举报

4kpropWy9MS9n手机认证 发表于 2021-9-26 18:51:45

4kpropWy9MS9n 板凳

2021-9-26 18:51:45

感谢分享!!!!!!
回复

使用道具 举报

lee800510手机认证 发表于 2021-9-28 12:37:54

lee800510 地板

2021-9-28 12:37:54

请问这个有中文字幕吗
回复 支持 反对

使用道具 举报

杰克张 发表于 2021-10-6 05:36:24

杰克张 5#

2021-10-6 05:36:24

谢谢分享,谢谢分享。
回复 支持 反对

使用道具 举报

FJZ 发表于 2021-10-9 21:25:36 来自手机

FJZ 6#

2021-10-9 21:25:36

回复 支持 反对

使用道具 举报

15821681324手机认证 发表于 2021-10-13 23:18:39 来自手机

15821681324 7#

2021-10-13 23:18:39

感谢了,辛苦了
回复 支持 反对

使用道具 举报

a62884788手机认证 发表于 2021-10-14 00:15:10 来自手机

a62884788 8#

2021-10-14 00:15:10

感谢楼主分享
回复 支持 反对

使用道具 举报

惜缘_DTVG 发表于 2021-10-17 17:09:28

惜缘_DTVG 9#

2021-10-17 17:09:28

感谢蓝光高清网提供的优质资源,希望网站越办越好
回复 支持 反对

使用道具 举报

。CAVL 发表于 2021-10-24 14:25:54

。CAVL 10#

2021-10-24 14:25:54

很喜欢这部片子,可以有下载吗
回复 支持 1 反对 0

使用道具 举报

发表回复

您需要登录后才可以回帖 登录 | 立即注册

返回列表 本版积分规则

  • 发帖

  • 在线客服

  • 微信

  • 客户端

  • 返回顶部