游客您好
第三方账号登陆
  • 点击联系客服

    在线时间:9:00-18:00

    客服QQ

    1371333023

    电子邮件

    lanniao@1080pro.net
  • 烧友之家APP

    随时掌握烧友资讯

  • 扫描二维码

    关注微信公众号

推荐阅读
蓝鸟
未知星球 | 未知职业
  • 关注0
  • 粉丝2
  • 帖子95993
精选帖子
开启左侧

活死人之夜 4k Night.of.the.Animated.Dead.2021.2160p.WEBRip.x265.10bit.HDR.DDP5.1-4k电影下载—5.08 GB

[复制链接]
蓝鸟 发表于 2021-9-23 10:27:31 | 显示全部楼层 |阅读模式 打印 上一主题 下一主题
活死人之夜
上映时间:2021年
类型:恐怖 动画 
地区:美国 
导演:Jason Axinn
主演:乔什·杜哈明 / 杜勒·希尔 / 凯瑟琳·伊莎贝尔 / 詹姆斯·罗德 / 凯缇·萨克霍夫
画质标准:4K HDR  封装音轨:Dolby TrueHD 5.1 Dolby Atmos 
豆瓣评分:
简       介
7 l% D! ]  \% `# S& h! F8 |1 {2 l8 P/ O- v1 t0 v

. Q, p9 N% Q/ Y' j6 ^/ A, D) {  乔治·A·罗梅罗经典恐怖片[活死人之夜]将被翻拍为动画影片!杰森·阿克辛执导,乔什·杜哈明、杜勒·希尔、凯瑟琳·伊莎贝尔、詹姆斯·罗德、凯缇·萨克霍夫、威尔·萨索、吉米·辛普森、南希·特拉维斯配音。原版电影节以神秘丧尸复活为背景,讲述本、芭芭拉与其他五个人被困在宾州一处农庄,努力求生的故事。) g; B( j* |' f. l, b) f% R; |

* N6 k# y  n* T1 A1 A9 N

8 p7 g* p  C" n: R8 v6 x影片参数
: _' r4 l' h* P! r/ v
活死人之夜动画版/活死人之夜4k Night.of.the.Animated.Dead.2021.2160p.WEBRip.x265.10bit.HDR.DDP5.1-4k电影信息6 r- u" }# o: g  m2 W( `8 `# q
Video. d9 \! j! r- [9 c9 J: M! |
ID : 1" t0 x3 O& B4 ^) ~
Format : HEVC
) J4 f& s  b, ?Format/Info : High Efficiency Video Coding
& s8 y% l! \/ z8 D+ Q/ [* V* UFormat profile : Main 10@L5.1@Main
+ P) w7 q2 R% L6 d# Z' SHDR format : SMPTE ST 2086, HDR10 compatible0 e# w: m- l  P; |$ d# G2 @
Codec ID : V_MPEGH/ISO/HEVC0 V0 r1 m9 g# J0 f# y6 i
Duration : 1 h 10 min  W/ L4 [, z' r0 j! F5 T# \6 C
Bit rate : 10.0 Mb/s
3 v" y  ]6 t2 l$ s% ~  m7 k6 s  X; hWidth : 3 840 pixels  Y! i( h/ ?5 P. f7 y, v
Height : 2 160 pixels
. e  V2 y& [2 H  wDisplay aspect ratio : 16:9: J, a2 C& H: Y1 `
Frame rate mode : Constant: v: L$ x2 D4 C1 u3 B
Frame rate : 23.976 (23976/1000) FPS' Q) p( n" G$ [8 [
Color space : YUV
" h: \% b  g0 Q/ RChroma subsampling : 4:2:0
8 S1 @3 T7 \$ U3 J) GBit depth : 10 bits& L5 S( M: J! Y8 h- u/ c+ J8 I
Bits/(Pixel*Frame) : 0.050
4 N* g6 n2 G# {9 o: x" vStream size : 4.95 GiB (97%)* z: ?4 l" M8 Q) C# J! n
Writing library : x265 3.0:[Linux][GCC 8.3.0][64 bit] 10bit
' T+ Q. [- N1 w: E" }' D8 [Encoding settings : cpuid=1111039 / frame-threads=3 / wpp / no-pmode / no-pme / no-psnr / no-ssim / log-level=2 / input-csp=1 / input-res=3840x2160 / interlace=0 / total-frames=0 / level-idc=51 / high-tier=1 / uhd-bd=0 / ref=2 / no-allow-non-conformance / repeat-headers / annexb / no-aud / no-hrd / info / hash=0 / no-temporal-layers / no-open-gop / min-keyint=24 / keyint=48 / gop-lookahead=0 / bframes=3 / b-adapt=0 / no-b-pyramid / bframe-bias=0 / rc-lookahead=15 / lookahead-slices=8 / scenecut=0 / radl=0 / no-splice / no-intra-refresh / ctu=64 / min-cu-size=8 / no-rect / no-amp / max-tu-size=32 / tu-inter-depth=1 / tu-intra-depth=1 / limit-tu=0 / rdoq-level=0 / dynamic-rd=0.00 / no-ssim-rd / signhide / no-tskip / nr-intra=0 / nr-inter=0 / no-constrained-intra / strong-intra-smoothing / max-merge=2 / limit-refs=3 / no-limit-modes / me=1 / subme=2 / merange=57 / temporal-mvp / weightp / no-weightb / no-analyze-src-pics / deblock=0:0 / sao / no-sao-non-deblock / rd=2 / early-skip / rskip / fast-intra / no-tskip-fast / no-cu-lossless / no-b-intra / no-splitrd-skip / rdpenalty=0 / psy-rd=2.00 / psy-rdoq=0.00 / no-rd-refine / no-lossless / cbqpoffs=0 / crqpoffs=0 / rc=cbr / bitrate=11440 / qcomp=0.60 / qpstep=4 / stats-write=0 / stats-read=0 / vbv-maxrate=11440 / vbv-bufsize=22440 / vbv-init=0.9 / ipratio=1.40 / pbratio=1.30 / aq-mode=2 / aq-strength=1.00 / cutree / zone-count=0 / no-strict-cbr / qg-size=32 / no-rc-grain / qpmax=69 / qpmin=0 / no-const-vbv / sar=1 / overscan=0 / videoformat=5 / range=0 / colorprim=9 / transfer=16 / colormatrix=9 / chromaloc=0 / display-window=0 / master-display=G(8500,39850)B(6550,2300)R(35400,14600)WP(15635,16450)L(10000000,1) / max-cll=963,127 / min-luma=0 / max-luma=1023 / log2-max-poc-lsb=8 / vui-timing-info / vui-hrd-info / slices=1 / no-opt-qp-pps / no-opt-ref-list-length-pps / no-multi-pass-opt-rps / scenecut-bias=0.05 / no-opt-cu-delta-qp / no-aq-motion / hdr / no-hdr-opt / no-dhdr10-opt / no-idr-recovery-sei / analysis-reuse-level=5 / scale-factor=0 / refine-intra=0 / refine-inter=0 / refine-mv=0 / refine-ctu-distortion=0 / no-limit-sao / ctu-info=0 / no-lowpass-dct / refine-analysis-type=0 / copy-pic=1 / max-ausize-factor=1.0 / no-dynamic-refine / no-single-sei / no-hevc-aq / qp-adaptation-range=1.00
: P1 e( T& R; m5 o" ]( g8 H. hDefault : Yes/ d+ m2 T+ m) N% b
Forced : No
! ]* F$ v8 q2 A; P& }& D" s! jColor range : Limited0 ^$ A; U! q3 e
Color primaries : BT.2020. c) v' C8 g# l
Transfer characteristics : PQ, ^; r/ c! X4 n, ?* {% O: o+ N/ R
Matrix coefficients : BT.2020 non-constant8 h! u% w( v0 |. |8 j0 [
Mastering display color primaries : BT.2020# A8 R* j+ `2 x- r9 F
Mastering display luminance : min: 0.0001 cd/m2, max: 1000 cd/m2
& a8 O) p( K' \/ V2 p2 fMaximum Content Light Level : 963 cd/m25 l4 q5 x- p9 C# W
Maximum Frame-Average Light Level : 127 cd/m2
+ z; ^9 v4 @4 d/ V% [6 c! R( D+ Q0 j3 I% e- O# J
4 h' q* s- p5 H' ?3 n+ M
Audio9 Z2 k* h+ L1 l5 P& c
ID : 2) f' R) b1 L6 G( A2 @: w, X
Format : E-AC-3
! M" s4 p4 t* ^3 Q( LFormat/Info : Enhanced AC-3
' l/ a& A) L6 _! nCommercial name : Dolby Digital Plus
  I. m' M) n. |; e- F( d# J& e, d( @Codec ID : A_EAC3
3 G! c. W# b& l: l3 {1 v3 nDuration : 1 h 10 min
) n% h+ K7 j* F  i  T( GBit rate mode : Constant
0 D' n& x( ~! X1 D! r$ Q1 H4 q: RBit rate : 256 kb/s
" d' @5 L3 O5 `; v, R- q6 lChannel(s) : 6 channels
- e1 ^. J6 L# F) v' O6 q& `Channel layout : L R C LFE Ls Rs
, f+ E/ ~: E7 b' lSampling rate : 48.0 kHz
: q$ q& d$ E9 F* BFrame rate : 31.250 FPS (1536 SPF)
$ S1 o) ^; `0 a9 `0 x% u- |Compression mode : Lossy$ L$ s" Y& ^( {0 I' U) W2 y
Stream size : 129 MiB (2%)
( W- L! M6 w3 p, y: x. }" v. nLanguage : English# Y+ R: M5 b1 ~5 d
Service kind : Complete Main/ ^. R/ U1 W/ @; N* Y' O: y
Default : No
8 p# S( d. R" ~6 yForced : No
( T1 l9 d3 F! x& w9 |+ k. p, }( Q& Y/ g# i/ f8 \9 Z
2 [$ c9 D" m, x' G! I( j
Text
3 G" y4 B0 U- L# x6 X8 DID : 3& H+ J# g9 A7 F* J* k- q+ |$ k- D
Format : UTF-8
8 @. b7 [4 K1 u0 u4 `Codec ID : S_TEXT/UTF86 l, A% I, c. h* M# e
Codec ID/Info : UTF-8 Plain Text' |8 W2 W. ?# V1 G( ^/ J0 i3 r, N3 ?
Duration : 1 h 8 min4 e2 b5 d" k, _* y( z3 y& B: z
Bit rate : 53 b/s, A1 i' L# t2 M2 Y* h0 n* c2 V
Count of elements : 751
, X  T0 m& F: B, b" O5 G/ AStream size : 27.2 KiB (0%)
/ `. K& ]% Z. J0 t+ ATitle : eng_Full3 [; o# a) h9 O8 y) {% E" s
Language : English
* r/ c0 d6 ~( L" C/ `% HDefault : No
/ j  E- R7 ~( }( W, D% p/ P0 k% `Forced : No
1 Z: Z7 M2 v/ Y
$ Z3 a+ h% ^: h' f4 P6 @2 B3 W
蓝光高清网提示您  点击下方附件名称  马上开始下载9 k# ^1 G4 N8 ^% o" \: |

, r$ Q6 N2 t7 h1 V  g- H
, d! G4 @; c0 Y; L+ y' U4 M
活死人之夜动画版/活死人之夜4k Night.of.the.Animated.Dead.2021.2160p.WEBRip.x265.10bit.HDR.DDP5.1-4k电影下载
" N) ^4 S7 C, I) V
+ o% o0 L8 S8 O% w% \$ X活死人之夜4k Night.of.the.Animated.Dead.2021.2160p.WEBRip.x265.10bit.HDR.DDP5.1【5.08 GB】
6 n1 t$ Q3 G+ I) [5 c4 N 活死人之夜4K Night.of.the.Animated.Dead.2021.2160p.WEBRip.x265.10bit.HDR.DDP5.1-NOGRP.torrent (大小:13.35 KB)
7 d: Z8 v0 n/ H$ N3 x. m
8 z( x: w1 o  t# j+ K活死人之夜 4k电影中文字幕下载
0 [5 N8 a$ W  r8 E Night.of.the.Animated.Dead.2021.1080p.WEB-DL.DD5.1.H.264-EVO.zip (大小:41.14 KB) 0 Q% _( F, h$ u7 M  W) q) h! @
8 R$ ~+ L9 p1 d* X& t
加入蓝光高清网VIP会员  无限制下载本站所有资源---点这里

资源下载、资源播放、字幕使用、无法下载等常见问题---点这里
回复

使用道具 举报

精彩评论3

gjl1975手机认证 发表于 2021-9-23 15:27:30 | 显示全部楼层
应该是不错的片源!感谢楼主分享!
回复 支持 反对

使用道具 举报

grly手机认证 发表于 2021-9-26 20:42:12 | 显示全部楼层
感谢分享好资源
回复 支持 反对

使用道具 举报

黑色史蒂夫 发表于 2021-10-1 20:32:37 | 显示全部楼层
感谢分享!
回复

使用道具 举报

您需要登录后才可以回帖 登录 | 立即注册

本版积分规则

烧友之家(蓝光高清网)本站内容部分由用户自主分享和转载自互联网,转载目的在于传递更多信息,并不代表本网赞同其观点和对其真实性负责。 如有侵权、违反国家法律政策行为,请联系我们,我们会第一时间及时清除和处理!
蓝光高清网 综合资讯平台
关注我们
  • 官方微信公众号
  • 扫码下载官方APP

X3.4 Licensed© 2001-2013 蓝光高清网 烧友之家APP |网站地图