游客您好
第三方账号登陆
  • 点击联系客服

    在线时间:9:00-18:00

    客服QQ

    1371333023

    电子邮件

    lanniao@1080pro.net
  • 烧友之家APP

    随时掌握烧友资讯

  • 扫描二维码

    关注微信公众号

推荐阅读
蓝鸟
未知星球 | 未知职业
  • 关注0
  • 粉丝2
  • 帖子95993
精选帖子
开启左侧

天堂鸟4k Birds.of.Paradise.2021.2160p.AMZN.WEB-DL.x265.10bit.HDR10Plus.DDP5.1.Atmos电影下载—12.22GB

[复制链接]
蓝鸟 发表于 2021-9-24 20:58:56 | 显示全部楼层 |阅读模式 打印 上一主题 下一主题
天堂鸟
上映时间:2021年
类型:剧情 爱情 悬疑 
地区:美国 
导演:萨拉·阿迪纳·史密斯
主演:戴安娜·西尔弗斯 克里斯汀·弗劳赛斯
画质标准:4K  封装音轨:Dolby TrueHD 5.1 Dolby Atmos 
豆瓣评分:
简       介:6 u/ J$ M4 h9 T" ]' U/ }
8 V* r! Z" K; n4 u
         Kate Sanders (Diana Silvers) is an ambitious and gifted, if tomboyish, aspiring ballerina from Virginia who, because of her low-income status, is given a scholarship to attend a prestigious ballet school in Paris, France. Upon arriving at the cutthroat, internationally-renowned institution, her confidence and emotional fortitude are tested by a beautiful, mysterious fellow dancer, Marine Durand (Kristine Froseth), who recently lost her brother (and dance partner) to suicide. While confrontational at first, Kate and Marine’s relationship evolves into an emotionally-charged, competitive union beset by lies, sexual awakening and, ultimately, emotional breakthrough as they risk everything to win the school’s ultimate prize: a contract to join the Opéra national de Paris.
2 {$ [6 |3 w4 k7 i! g5 t. I2 N9 D) Y! U" H
影片参数
/ D2 [% ^. }" D! H; C5 W7 E
天堂鸟4k Birds.of.Paradise.2021.2160p.AMZN.WEB-DL.x265.10bit.HDR10Plus.DDP5.1.Atmos电影信息$ T# K! f- U' S) O' b/ V7 v
Video
  `8 }0 ?; R0 _* W$ N9 NID : 1
  x$ e# ~7 |, i! H' l# tFormat : HEVC
  e6 R8 N1 F; Z* b7 cFormat/Info : High Efficiency Video Coding
. V( U$ B5 N/ T. K; z7 @+ a2 IFormat profile : Main 10@L5@Main; }1 c% [* ~6 m2 C
HDR format : SMPTE ST 2094 App 4, Version 1, HDR10+ Profile B compatible
7 E" n1 }% c  ^# Q. O- bCodec ID : V_MPEGH/ISO/HEVC  n" d0 j: ~3 O0 _5 P/ ~7 W
Duration : 1 h 53 min
* P. m$ t  k' T+ H% ]* ~4 zBit rate : 15.0 Mb/s
+ D* Z4 c) d& j; x! DWidth : 3 840 pixels. Y' v0 |2 J7 Y( f% c! F
Height : 1 600 pixels. s6 x  c9 X" k/ N
Display aspect ratio : 2.40:1+ |% X, _5 I% I; V1 F/ |- q/ c# {
Frame rate mode : Constant
6 J. I+ g% b2 _2 JFrame rate : 23.976 (24000/1001) FPS) }* f' `( M/ V  r$ ^- w
Color space : YUV
5 E# |2 r3 a# x! t3 {' XChroma subsampling : 4:2:06 L& N+ P! [# K8 n* ~
Bit depth : 10 bits
; ]6 @5 Q0 V. w9 X+ B, X4 W7 Z5 C+ i8 g5 yBits/(Pixel*Frame) : 0.102; p0 c! O( l# O
Stream size : 11.9 GiB (97%)' W$ l8 r, \3 J5 e* s$ X' v6 ^
Default : Yes. L- m, s( r* S
Forced : No( W2 x5 C& U' k( J, F! P+ Y4 D
Color range : Limited
5 R( Z: l5 V8 D/ ^: oColor primaries : BT.2020$ y( F" \. _1 z7 E' N* V5 w6 B
Transfer characteristics : PQ9 {) |4 L# e% K& C
Matrix coefficients : BT.2020 non-constant
% Q1 |" r9 i4 ~" h) M8 HMastering display color primaries : Display P3
' E0 ?/ }* h# n( xMastering display luminance : min: 0.0001 cd/m2, max: 1000 cd/m2
0 P) S( S( D/ yMaximum Content Light Level : 843 cd/m2
+ V+ S2 C/ D" a1 \* [8 z2 ZMaximum Frame-Average Light Level : 203 cd/m2, d! _+ F6 o$ X3 u# u2 G( Y. \9 ^2 u
' |0 a/ q' h! I) ?
; c6 `6 j- j$ M9 m+ w0 B* t! ]
Audio
1 Z5 H0 C+ a$ q4 ]3 Q5 kID : 2
4 N4 K9 i$ u! r* F; k8 L7 a" YFormat : E-AC-3 JOC
4 ?- Z4 {" M$ ^0 OFormat/Info : Enhanced AC-3 with Joint Object Coding; b+ U9 A# f  y) m9 t+ }) _
Commercial name : Dolby Digital Plus with Dolby Atmos
" l2 u( w6 p" b: V( p# U; dCodec ID : A_EAC3
- ^6 n' R' r% zDuration : 1 h 53 min  D$ y) m  _! S
Bit rate mode : Constant5 k3 ^9 K! O( J" I! w
Bit rate : 448 kb/s
+ Z  e7 p" @9 i6 GChannel(s) : 6 channels; K# ]1 B4 j2 s0 ?! ~8 K# f+ f
Channel layout : L R C LFE Ls Rs& I! R: U- l+ M; ]% V
Sampling rate : 48.0 kHz
) o& i, e) T) o& @# X) eFrame rate : 31.250 FPS (1536 SPF)
& }( z4 }5 b! L' I, _6 F. pCompression mode : Lossy
4 c, F8 K& j5 S8 G* U( pStream size : 364 MiB (3%)! R5 ^" F* T5 k( s/ _; z
Title : English
' [$ K' ?+ p: ]. h- H% pLanguage : English
" W5 j2 t6 A6 ~Service kind : Complete Main6 b9 `. [1 ?& t  o# e
Default : No
* y: X7 o8 t% D) M3 n; bForced : No
" h- S4 O6 L" ~: v, P* s8 \Complexity index : 16
7 O8 z5 C) |9 K" \5 ?9 G8 HNumber of dynamic objects : 15
6 |3 e2 ^( q; C6 KBed channel count : 1 channel
; T7 h2 P; v; l2 X9 W( QBed channel configuration : LFE
' G& f9 n$ w1 o8 ?" H" f- ^! B2 QDefault : No4 z8 l2 N' N" M% a1 z$ i
Forced : No

: @; t* r" F% K4 J) Y蓝光高清网提示您  点击下方附件名称  马上开始下载
4 l+ j# A$ t1 F- D7 {, K
; s1 {0 @' T, a1 z1 M天堂鸟4k Birds.of.Paradise.2021.2160p.AMZN.WEB-DL.x265.10bit.HDR10Plus.DDP5.1.Atmos电影下载
! z- ?/ [7 W5 K# u2 q9 X7 B$ Z7 l/ C/ q- P7 Q: j
天堂鸟4k Birds.of.Paradise.2021.2160p.AMZN.WEB-DL.x265.10bit.HDR10Plus.DDP5.1.Atmos简繁中字【4k HDR 12.22 GB 】
9 Y) S, C& ]  E! S8 ?! Z& M. ^" ^/ | 天堂鸟4k Birds.of.Paradise.2021.2160p.AMZN.WEB-DL.x265.10bit.HDR10Plus.DDP5.1.Atmos-NOGRP.torrent (大小:15.96 KB) ) m6 u0 E1 x8 Y- N8 m
加入蓝光高清网VIP会员  无限制下载本站所有资源---点这里

资源下载、资源播放、字幕使用、无法下载等常见问题---点这里
回复

使用道具 举报

精彩评论3

gdlmxia 发表于 2021-9-25 08:23:04 | 显示全部楼层
太好啦&萬分感謝版主的無私發佈分享%
回复 支持 反对

使用道具 举报

plxl手机认证 发表于 2021-9-26 22:58:29 | 显示全部楼层
我要啊、我要啊
回复 支持 反对

使用道具 举报

sinoivanlee手机认证 发表于 2021-9-27 12:27:02 | 显示全部楼层
哇哦!很经典,非常好看的!
回复 支持 反对

使用道具 举报

您需要登录后才可以回帖 登录 | 立即注册

本版积分规则

烧友之家(蓝光高清网)本站内容部分由用户自主分享和转载自互联网,转载目的在于传递更多信息,并不代表本网赞同其观点和对其真实性负责。 如有侵权、违反国家法律政策行为,请联系我们,我们会第一时间及时清除和处理!
蓝光高清网 综合资讯平台
关注我们
  • 官方微信公众号
  • 扫码下载官方APP

X3.4 Licensed© 2001-2013 蓝光高清网 烧友之家APP |网站地图