游客您好
第三方账号登陆
  • 点击联系客服

    在线时间:9:00-18:00

    客服QQ

    1371333023

    电子邮件

    lanniao@1080pro.net
  • 烧友之家APP

    随时掌握烧友资讯

  • 扫描二维码

    关注微信公众号

推荐阅读
蓝鸟
未知星球 | 未知职业
  • 关注0
  • 粉丝2
  • 帖子95993
精选帖子
开启左侧

[4K高清美剧] 星球大战:幻境 4k Star.Wars.Visions.S01.JAPANESE.2160p.WEB-DL.x265.10bit.HDR.DDP5.1美剧下载—16.49 GB

[复制链接]
蓝鸟 发表于 2021-9-27 10:09:12 | 显示全部楼层 |阅读模式 打印 上一主题 下一主题
星球大战:幻境

状态:第一季(完结)
上映时间:2021-09-22
类型:动作 科幻 动画 奇幻 冒险 
地区:美国
导演:神山健治 / 今石洋之 / 水野貴信 / 五十岚祐贵 / 大塚雅彦 / 垪和等 / Abel Gongora / 崔恩映
主演:约瑟夫·高登-莱维特 / 刘玉玲 / 刘思慕 / 尼尔·帕特里克·哈里斯 / 亨利·戈尔丁
画质标准:4K(3840x2160) 封装音轨:MKV 音轨编码:其他DD
豆瓣评分:7.8分
剧情简介
  卢卡斯影业将打造全新星战短片合集《星球大战:幻象》(Star Wars: Visions,暂译)。10部短片将由日本几家不同的动漫工作室创作,将为星战引入不同文化视角....
影片参数
星球大战:幻象 / 星球大战:异象/星球大战:幻境4k Star.Wars.Visions.S01.JAPANESE.2160p.WEB-DL.x265.10bit.HDR.DDP5.1美剧信息
Video
ID : 1
Format : HEVC
Format/Info : High Efficiency Video Coding
Format profile : Main 10@L5@High
HDR format : SMPTE ST 2086, HDR10 compatible
Codec ID : V_MPEGH/ISO/HEVC
Duration : 21 min 41 s
Bit rate : 16.3 Mb/s
Width : 3 840 pixels
Height : 2 160 pixels
Display aspect ratio : 16:9
Frame rate mode : Constant
Frame rate : 24.000 FPS
Color space : YUV
Chroma subsampling : 4:2:0
Bit depth : 10 bits
Bits/(Pixel*Frame) : 0.082
Stream size : 2.46 GiB (97%)
Language : Japanese
Default : Yes
Forced : No
Color range : Limited
Color primaries : BT.2020
Transfer characteristics : PQ
Matrix coefficients : BT.2020 non-constant
Mastering display color primaries : BT.2020
Mastering display luminance : min: 0.0001 cd/m2, max: 1000 cd/m2


Audio #1
ID : 2
Format : E-AC-3
Format/Info : Enhanced AC-3
Commercial name : Dolby Digital Plus
Codec ID : A_EAC3
Duration : 21 min 41 s
Bit rate mode : Constant
Bit rate : 256 kb/s
Channel(s) : 6 channels
Channel layout : L R C LFE Ls Rs
Sampling rate : 48.0 kHz
Frame rate : 31.250 FPS (1536 SPF)
Compression mode : Lossy
Stream size : 39.7 MiB (2%)
Language : Japanese
Service kind : Complete Main
Default : Yes
Forced : No


Audio #2
ID : 3
Format : E-AC-3
Format/Info : Enhanced AC-3
Commercial name : Dolby Digital Plus
Codec ID : A_EAC3
Duration : 21 min 41 s
Bit rate mode : Constant
Bit rate : 256 kb/s
Channel(s) : 6 channels
Channel layout : L R C LFE Ls Rs
Sampling rate : 48.0 kHz
Frame rate : 31.250 FPS (1536 SPF)
Compression mode : Lossy
Stream size : 39.7 MiB (2%)
Language : English
Service kind : Complete Main
Default : Yes
Forced : No


Text #1
ID : 4
Format : UTF-8
Codec ID : S_TEXT/UTF8
Codec ID/Info : UTF-8 Plain Text
Duration : 20 min 54 s
Bit rate : 56 b/s
Count of elements : 241
Stream size : 8.64 KiB (0%)
Title : English (forced)
Language : English
Default : No
Forced : Yes


Text #2
ID : 5
Format : UTF-8
Codec ID : S_TEXT/UTF8
Codec ID/Info : UTF-8 Plain Text
Duration : 21 min 18 s
Bit rate : 44 b/s
Count of elements : 182
Stream size : 7.01 KiB (0%)
Title : Dansk
Language : Danish
Default : No
Forced : No


Text #3
ID : 6
Format : UTF-8
Codec ID : S_TEXT/UTF8
Codec ID/Info : UTF-8 Plain Text
Duration : 21 min 25 s
Bit rate : 42 b/s
Count of elements : 177
Stream size : 6.64 KiB (0%)
Title : Deutsch
Language : German
Default : No
Forced : No


Text #4
ID : 7
Format : UTF-8
Codec ID : S_TEXT/UTF8
Codec ID/Info : UTF-8 Plain Text
Duration : 21 min 11 s
Bit rate : 45 b/s
Count of elements : 176
Stream size : 7.12 KiB (0%)
Title : Español
Language : Spanish
Default : No
Forced : No


Text #5
ID : 8
Format : UTF-8
Codec ID : S_TEXT/UTF8
Codec ID/Info : UTF-8 Plain Text
Duration : 21 min 18 s
Bit rate : 42 b/s
Count of elements : 171
Stream size : 6.66 KiB (0%)
Title : Español (Latinoamericano)
Language : Spanish
Default : No
Forced : No


Text #6
ID : 9
Format : UTF-8
Codec ID : S_TEXT/UTF8
Codec ID/Info : UTF-8 Plain Text
Duration : 21 min 18 s
Bit rate : 39 b/s
Count of elements : 179
Stream size : 6.15 KiB (0%)
Title : Suomi
Language : Finnish
Default : No
Forced : No


Text #7
ID : 10
Format : UTF-8
Codec ID : S_TEXT/UTF8
Codec ID/Info : UTF-8 Plain Text
Duration : 21 min 18 s
Bit rate : 45 b/s
Count of elements : 182
Stream size : 7.15 KiB (0%)
Title : Français
Language : French
Default : No
Forced : No


Text #8
ID : 11
Format : UTF-8
Codec ID : S_TEXT/UTF8
Codec ID/Info : UTF-8 Plain Text
Duration : 21 min 18 s
Bit rate : 43 b/s
Count of elements : 175
Stream size : 6.83 KiB (0%)
Title : Italiano
Language : Italian
Default : No
Forced : No


Text #9
ID : 12
Format : UTF-8
Codec ID : S_TEXT/UTF8
Codec ID/Info : UTF-8 Plain Text
Duration : 21 min 25 s
Bit rate : 46 b/s
Count of elements : 171
Stream size : 7.23 KiB (0%)
Title : Japanese
Language : Japanese
Default : No
Forced : No


Text #10
ID : 13
Format : UTF-8
Codec ID : S_TEXT/UTF8
Codec ID/Info : UTF-8 Plain Text
Duration : 21 min 25 s
Bit rate : 46 b/s
Count of elements : 183
Stream size : 7.34 KiB (0%)
Title : Korean
Language : Korean
Default : No
Forced : No


Text #11
ID : 14
Format : UTF-8
Codec ID : S_TEXT/UTF8
Codec ID/Info : UTF-8 Plain Text
Duration : 21 min 11 s
Bit rate : 40 b/s
Count of elements : 158
Stream size : 6.30 KiB (0%)
Title : Nederlands
Language : Dutch
Default : No
Forced : No


Text #12
ID : 15
Format : UTF-8
Codec ID : S_TEXT/UTF8
Codec ID/Info : UTF-8 Plain Text
Duration : 21 min 11 s
Bit rate : 45 b/s
Count of elements : 181
Stream size : 7.10 KiB (0%)
Title : Norsk
Language : Norwegian
Default : No
Forced : No


Text #13
ID : 16
Format : UTF-8
Codec ID : S_TEXT/UTF8
Codec ID/Info : UTF-8 Plain Text
Duration : 21 min 25 s
Bit rate : 41 b/s
Count of elements : 181
Stream size : 6.57 KiB (0%)
Title : Polski
Language : Polish
Default : No
Forced : No


Text #14
ID : 17
Format : UTF-8
Codec ID : S_TEXT/UTF8
Codec ID/Info : UTF-8 Plain Text
Duration : 21 min 25 s
Bit rate : 45 b/s
Count of elements : 181
Stream size : 7.08 KiB (0%)
Title : Português
Language : Portuguese
Default : No
Forced : No


Text #15
ID : 18
Format : UTF-8
Codec ID : S_TEXT/UTF8
Codec ID/Info : UTF-8 Plain Text
Duration : 21 min 18 s
Bit rate : 42 b/s
Count of elements : 179
Stream size : 6.67 KiB (0%)
Title : Português (Brasil)
Language : Portuguese
Default : No
Forced : No


Text #16
ID : 19
Format : UTF-8
Codec ID : S_TEXT/UTF8
Codec ID/Info : UTF-8 Plain Text
Duration : 21 min 18 s
Bit rate : 48 b/s
Count of elements : 182
Stream size : 7.55 KiB (0%)
Title : Svenska
Language : Swedish
Default : No
Forced : No


Text #17
ID : 20
Format : UTF-8
Codec ID : S_TEXT/UTF8
Codec ID/Info : UTF-8 Plain Text
Duration : 21 min 25 s
Bit rate : 33 b/s
Count of elements : 183
Stream size : 5.31 KiB (0%)
Title : Chinese (Hong Kong)
Language : Chinese
Default : No
Forced : No


Text #18
ID : 21
Format : UTF-8
Codec ID : S_TEXT/UTF8
Codec ID/Info : UTF-8 Plain Text
Duration : 21 min 25 s
Bit rate : 34 b/s
Count of elements : 182
Stream size : 5.48 KiB (0%)
Title : Chinese (Simplified)
Language : Chinese     Text该处参数分析:代表有中文字幕
Default : No
Forced : No


蓝光高清网提示您  点击下方附件名称  马上开始下载


星球大战:幻象 / 星球大战:异象/星球大战:幻境4k Star.Wars.Visions.S01.JAPANESE.2160p.WEB-DL.x265.10bit.HDR.DDP5.1美剧下载


星球大战:幻境4k Star.Wars.Visions.S01.JAPANESE.2160p.WEB-DL.x265.10bit.HDR.DDP5.1【自带中字】【16.49 GB】

星球大战:幻境4k Star.Wars.Visions.S01.JAPANESE.2160p.WEB-DL.x265.10bit.HDR.DDP5.1-SWTYBLZ.torrent (大小:22.17 KB)
加入蓝光高清网VIP会员  无限制下载本站所有资源---点这里

资源下载、资源播放、字幕使用、无法下载等常见问题---点这里
回复

使用道具 举报

精彩评论6

ggang1 发表于 2021-9-27 11:34:53 | 显示全部楼层
谢楼主分享!
回复 支持 反对

使用道具 举报

sinoivanlee手机认证 发表于 2021-9-27 14:16:57 | 显示全部楼层
星球大战,这个IP很不错啊!谢谢楼主分享
回复 支持 反对

使用道具 举报

sinoivanlee手机认证 发表于 2021-10-2 14:32:35 | 显示全部楼层
星战!永远的神作!太谢谢楼主了
回复 支持 反对

使用道具 举报

Anndiy520手机认证 发表于 2021-10-6 00:17:03 来自手机 | 显示全部楼层
谢谢分享谢谢分享
回复 支持 反对

使用道具 举报

坐地巡天 发表于 7 天前 | 显示全部楼层
谢谢楼主分享
回复 支持 反对

使用道具 举报

坐地巡天 发表于 6 天前 | 显示全部楼层
谢楼主的精彩分享
回复 支持 反对

使用道具 举报

您需要登录后才可以回帖 登录 | 立即注册

本版积分规则

烧友之家(蓝光高清网)本站内容部分由用户自主分享和转载自互联网,转载目的在于传递更多信息,并不代表本网赞同其观点和对其真实性负责。 如有侵权、违反国家法律政策行为,请联系我们,我们会第一时间及时清除和处理!
蓝光高清网 综合资讯平台
关注我们
  • 官方微信公众号
  • 扫码下载官方APP

X3.4 Licensed© 2001-2013 蓝光高清网 烧友之家APP |网站地图