游客您好
第三方账号登陆
  • 点击联系客服

    在线时间:9:00-18:00

    客服QQ

    1371333023

    电子邮件

    lanniao@1080pro.net
  • 烧友之家APP

    随时掌握烧友资讯

  • 扫描二维码

    关注微信公众号

推荐阅读
蓝鸟
未知星球 | 未知职业
  • 关注0
  • 粉丝2
  • 帖子95993
精选帖子
开启左侧

盲点 4k Blindspotting.2018.2160p.WEBRip.x265.10bit.HDR.TrueHD.7.1.Atmos-GASMASK电影下载—18.74 GB

[复制链接]
蓝鸟 发表于 2021-9-27 11:24:43 | 显示全部楼层 |阅读模式 打印 上一主题 下一主题
盲点
上映时间:2018年
类型:喜剧 剧情 犯罪 
地区:美国 
导演:卡洛斯·洛佩斯·埃斯特拉达
主演:戴维德·迪格斯 / 拉斐尔·卡索 / 詹妮娜·加万卡 / 贾思敏·赛法斯·琼斯 / 伊桑·恩布里
画质标准:4K HDR  封装音轨:Dolby TrueHD 7.1 Dolby Atmos 
豆瓣评分:7.3分
简       介- H' j& T/ N; Y2 |9 ~
5 \8 A7 b& U3 n4 r

& U% j$ W" g  p: z  故事围绕一个假释犯假释期的最后几天展开。
$ V8 _1 I$ x& I: x+ l. [! _8 N' e) A( ?' @' G( C/ e( c

  [4 A5 V$ L  b/ b影片参数9 D1 n  u" K' _. k1 ]$ x4 H6 L9 y
盲点4k Blindspotting.2018.2160p.WEBRip.x265.10bit.HDR.TrueHD.7.1.Atmos-GASMASK电影下载6 u* j9 h5 @2 g/ I% }9 T
1 ~" r4 }& g4 N% E* R* o6 n

# ^9 ]* C1 m5 C: d2 gVideo
: ~* J; I( u& w0 XID : 1
& Z/ O/ L0 M0 x2 I: g  w* k. pFormat : HEVC: d; V0 B7 g- r+ U7 ~* d& h
Format/Info : High Efficiency Video Coding7 u% |$ @! ]4 |! V' @, _
Commercial name : HDR101 D, j' X; K; q" s! k! |
Format profile : Main 10@L5.1@High
( w5 l: Y/ P+ m* w( lCodec ID : V_MPEGH/ISO/HEVC
- S- ?. U3 G' Z5 K* j( t' D- aDuration : 1 h 35 min, E. T0 {2 b+ j1 J- {  ~
Bit rate : 22.0 Mb/s: h% j; y5 G6 Q4 o4 `, g/ _- o
Width : 3 840 pixels) G3 v6 K- t0 n4 V' B; p! J
Height : 2 060 pixels0 m& R5 y/ L! ~1 e; s
Display aspect ratio : 1.85:1& R0 T0 K: p# n$ L5 \+ l
Frame rate mode : Constant9 ?2 a3 G  |, C+ p
Frame rate : 23.976 (24000/1001) FPS. ]+ S0 [: _$ R7 j) D! K
Color space : YUV
( }% g3 z# ?& ?+ v. }Chroma subsampling : 4:2:0 (Type 2), l7 P" c, q. l  t2 o. B
Bit depth : 10 bits
' t: H7 e8 J- p+ j: hBits/(Pixel*Frame) : 0.116
. D+ X0 \( x% M6 Z/ pStream size : 14.6 GiB (78%)
6 Y9 ^: @! _/ ^; u: aWriting library : x265 3.0_Au+16-0018ca1ca42f:[Windows][GCC 8.3.0][64 bit] 10bit
! U& v1 o+ S' h5 ~- pEncoding settings : cpuid=1111039 / frame-threads=4 / numa-pools=28 / wpp / no-pmode / no-pme / no-psnr / no-ssim / log-level=2 / input-csp=1 / input-res=3840x2060 / interlace=0 / total-frames=137209 / level-idc=51 / high-tier=1 / uhd-bd=0 / ref=4 / no-allow-non-conformance / repeat-headers / annexb / aud / hrd / info / hash=0 / no-temporal-layers / no-open-gop / min-keyint=24 / keyint=240 / gop-lookahead=0 / bframes=4 / b-adapt=2 / b-pyramid / bframe-bias=0 / rc-lookahead=25 / lookahead-slices=4 / scenecut=40 / radl=0 / no-splice / no-intra-refresh / ctu=64 / min-cu-size=8 / rect / no-amp / max-tu-size=32 / tu-inter-depth=1 / tu-intra-depth=1 / limit-tu=0 / rdoq-level=2 / dynamic-rd=0.00 / no-ssim-rd / signhide / no-tskip / nr-intra=0 / nr-inter=0 / no-constrained-intra / no-strong-intra-smoothing / max-merge=3 / limit-refs=3 / limit-modes / me=3 / subme=3 / merange=57 / temporal-mvp / weightp / no-weightb / no-analyze-src-pics / deblock=-3:-3 / no-sao / no-sao-non-deblock / rd=4 / no-early-skip / rskip / no-fast-intra / no-tskip-fast / no-cu-lossless / no-b-intra / no-splitrd-skip / rdpenalty=0 / psy-rd=2.00 / psy-rdoq=1.00 / no-rd-refine / no-lossless / cbqpoffs=0 / crqpoffs=0 / rc=crf / crf=15.0 / qcomp=0.70 / qpstep=4 / stats-write=0 / stats-read=0 / vbv-maxrate=160000 / vbv-bufsize=160000 / vbv-init=0.9 / crf-max=0.0 / crf-min=0.0 / ipratio=1.40 / pbratio=1.30 / aq-mode=1 / aq-strength=1.00 / cutree / zone-count=0 / no-strict-cbr / qg-size=32 / no-rc-grain / qpmax=69 / qpmin=0 / no-const-vbv / sar=1 / overscan=0 / videoformat=5 / range=0 / colorprim=9 / transfer=16 / colormatrix=9 / chromaloc=1 / chromaloc-top=2 / chromaloc-bottom=2 / display-window=0 / master-display=G(8500,39850)B(6550,2300)R(35400,14600)WP(15635,16450)L(10000000,3390) / max-cll=0,0 / min-luma=0 / max-luma=1023 / log2-max-poc-lsb=8 / vui-timing-info / vui-hrd-info / slices=1 / no-opt-qp-pps / no-opt-ref-list-length-pps / no-multi-pass-opt-rps / scenecut-bias=0.05 / no-opt-cu-delta-qp / no-aq-motion / hdr / hdr-opt / no-dhdr10-opt / no-idr-recovery-sei / analysis-reuse-level=5 / scale-factor=0 / refine-intra=0 / refine-inter=0 / refine-mv=0 / refine-ctu-distortion=0 / no-limit-sao / ctu-info=0 / no-lowpass-dct / refine-analysis-type=0 / copy-pic=1 / max-ausize-factor=1.0 / no-dynamic-refine / no-single-sei / no-hevc-aq / no-svt / qp-adaptation-range=1.008 J! }8 }# l. B' B" v
Default : Yes. c8 f) |& ]4 c7 T8 u
Forced : No
/ ?$ _, V0 C2 \& h1 Q% `Color range : Limited+ \! P$ O: L, Z) M+ ?# y
Color primaries : BT.2020
) p5 N9 m* o: M0 c* \Transfer characteristics : PQ: f. N9 E6 K; _( b, B- E
Matrix coefficients : BT.2020 non-constant6 z$ d+ v! O' L9 L; c3 ^9 u
Mastering display color primaries : BT.2020
, B2 r! y- ?- P# B; ]Mastering display luminance : min: 0.3390 cd/m2, max: 1000 cd/m2
# L" J: l+ V# k, p! P! k% h6 H9 O1 M6 J# A

# z4 ?. v: P, D% OAudio #1
. e" t) D# ?3 ], WID : 2
* a7 c9 f; i: C/ g$ n  \9 KFormat : MLP FBA 16-ch- \. v/ x: V! h* b2 L4 {5 n
Format/Info : Meridian Lossless Packing FBA with 16-channel presentation! O/ f$ |( `# h
Commercial name : Dolby TrueHD with Dolby Atmos
8 I4 a7 n7 P6 |* s) q" \- ]Codec ID : A_TRUEHD5 t: a* `# `; j! Y& _+ d) _
Duration : 1 h 35 min' ]2 m+ M  q# i; j+ X) P; F6 T
Bit rate mode : Variable
! s& W3 R: M. T- K9 h- X0 t9 W6 @7 mBit rate : 3 867 kb/s5 k) e" f8 \' z5 w
Maximum bit rate : 4 962 kb/s/ x# o5 v3 _; _8 f4 Q& R# t
Channel(s) : 8 channels5 k3 U0 k3 u7 j1 q
Channel layout : L R C LFE Ls Rs Lb Rb( q, H: \2 v/ M( T! D1 g, q( b0 k
Sampling rate : 48.0 kHz
  y* Q. V( B6 f. qFrame rate : 1 200.000 FPS (40 SPF)+ n2 a' x: R% r, P/ F
Compression mode : Lossless
. S: y- v  d' w/ L7 zStream size : 2.58 GiB (14%)
, D' ^4 I2 L# b$ C. W5 o8 L6 H# L: M& Z4 [Language : English6 v% S& l, o8 F' Z7 a% R
Default : Yes
3 J% V6 o$ q$ T( n- TForced : No7 X& n$ h3 w0 f* v+ R" @2 F) [
Number of dynamic objects : 159 d5 D# `5 o$ d
Bed channel count : 1 channel# T6 w4 h8 ^; a  H3 @
Bed channel configuration : LFE

+ R( J! H/ _+ z# a( t
0 l2 Q- c3 Q9 s2 A; }) @7 \1 T7 x蓝光高清网提示您  点击下方附件名称  马上开始下载$ n9 c4 l) C; w3 R4 I) Y% [. Z; a' a

' T+ p" K/ d1 }  k# q7 ^) b

8 g( I! W1 C1 x' L1 X0 l. E多版本下载时请注意区分, F" C; r/ b  K
9 H# L, \. i) F& |1 b

5 X5 }2 S! u; g! b盲点4k Blindspotting.2018.2160p.WEBRip.x265.10bit.HDR.TrueHD.7.1.Atmos-GASMASK电影下载0 a  g9 r' |* o  j
" r$ Y" b  u  l/ v' O. C  |" F4 ?
/ Z; |" x- R) J' T
盲点4k Blindspotting.2018.2160p.WEBRip.x265.10bit.HDR.TrueHD.7.1.Atmos-GASMASK【4K  2160p 18.74GB】! V  L, Y9 P5 b1 l* e/ ~
盲点4k Blindspotting.2018.2160p.WEBRip.x265.10bit.HDR.TrueHD.7.1.Atmos-GA.torrent (大小:94.25 KB)
+ G& Z9 ~2 ]0 q3 R8 g2 F: ?1 m0 v! E8 ~+ A1 A2 l
' ^* S4 V; t: f$ _
盲点4k Blindspotting.2018.2160p.WEB-DL.x265.10bit.HDR.DTS-HD.MA.TrueHD.7.1.Atmos【4K  2160p 22.11GB】& s  q/ F5 {9 U) `
盲点4k Blindspotting.2018.2160p.WEB-DL.x265.10bit.HDR.DTS-HD.MA.TrueHD.7..torrent (大小:55.97 KB) ! i* ]3 d) ]. `1 |2 N  T1 Z
6 ~4 h1 O+ f. p* g1 c; N
盲点 4k电影中文字幕下载
3 d& _$ ~% |8 `4 W: R' C, C2 w: U 盲点.V1[校订 注释 特效].Blindspotting.2018.1080p.BluRay.H264.AAC-RARBG.CHS-Revision.由popxhy基于[官方繁体字幕]修订制作同时借鉴[CHD字幕组SUP字幕].rar (大小:38.2 KB) ; g! {1 x0 x$ o# B9 i/ f" H

" `5 q0 a: ]& e
加入蓝光高清网VIP会员  无限制下载本站所有资源---点这里

资源下载、资源播放、字幕使用、无法下载等常见问题---点这里
回复

使用道具 举报

精彩评论3

YXD873627手机认证 发表于 2021-9-27 17:49:27 | 显示全部楼层
感谢分享!
回复

使用道具 举报

ggang1 发表于 2021-9-28 11:06:13 | 显示全部楼层
好片!感谢楼主!
回复 支持 反对

使用道具 举报

sinoivanlee手机认证 发表于 2021-10-2 14:28:31 | 显示全部楼层
看来是很惊险刺激的
回复 支持 反对

使用道具 举报

您需要登录后才可以回帖 登录 | 立即注册

本版积分规则

烧友之家(蓝光高清网)本站内容部分由用户自主分享和转载自互联网,转载目的在于传递更多信息,并不代表本网赞同其观点和对其真实性负责。 如有侵权、违反国家法律政策行为,请联系我们,我们会第一时间及时清除和处理!
蓝光高清网 综合资讯平台
关注我们
  • 官方微信公众号
  • 扫码下载官方APP

X3.4 Licensed© 2001-2013 蓝光高清网 烧友之家APP |网站地图