游客您好
第三方账号登陆
  • 点击联系客服

    在线时间:9:00-18:00

    客服QQ

    1371333023

    电子邮件

    lanniao@1080pro.net
  • 烧友之家APP

    随时掌握烧友资讯

  • 扫描二维码

    关注微信公众号

推荐阅读
蓝鸟
未知星球 | 未知职业
  • 关注0
  • 粉丝2
  • 帖子95993
精选帖子
开启左侧

入室惊魂/魔爪入室4k Intrusion.2021.2160p.NF.WEBRip.x265.10bit.SDR.DDP5.1.Atmos-4k电影下载—14.13GB

[复制链接]
蓝鸟 发表于 2021-9-28 11:27:19 | 显示全部楼层 |阅读模式 打印 上一主题 下一主题
魔爪入室
上映时间:2021年
类型:剧情 惊悚 
地区:美国 
导演:亚当·萨尔基
主演:罗根·马歇尔-格林 芙蕾达·平托
画质标准:4K SDR  封装音轨:DTS-HD.MA.2.0 
豆瓣评分:4.6分
本帖最后由 蓝鸟 于 2021-9-28 11:28 编辑 8 h2 k7 U( W' u9 T$ D! ^

, J0 [/ Q7 B9 |简       介:
& V+ f- X* N2 N% Y1 G5 m7 p

7 L, F) w4 E* J. b4 V  一对夫妇搬到小镇居住,有人擅自闯入他们的家。妻子自此疑神疑鬼,似乎身边所有人都是另有图谋。+ z+ I! M: g- ^& x; F; Z  I# W
) I/ s6 X- i2 n
影片参数& k. t( @# a4 q
入室惊魂/魔爪入室4k Intrusion.2021.2160p.NF.WEBRip.x265.10bit.SDR.DDP5.1.Atmos-4k电影信息/ {; ~' A* n& t1 M8 W9 F
Video/ E) b' ^; Q* T$ f& f$ e
ID : 1! `- t4 e: K; X. B
Format : HEVC
% l" A- ^% f  BFormat/Info : High Efficiency Video Coding* k5 i& K3 }: t5 _* X+ i& s# ~
Format profile : Main 10@L5.1@High( c! g8 j6 c" {9 A% E5 U+ Z
Codec ID : V_MPEGH/ISO/HEVC
: [1 D1 c+ S, K1 N6 U* q/ T' dDuration : 1 h 33 min- P" X4 a" D8 v5 e' }# c( g
Bit rate : 20.8 Mb/s5 _$ b' o2 v8 N" |6 w# V8 }" n. b
Width : 3 840 pixels( @: d) R, t/ p- f$ l" p" v
Height : 1 608 pixels  a& q% U+ z+ ~% y
Display aspect ratio : 2.40:1
3 Z( `* \6 g: V' M$ aFrame rate mode : Constant
; x6 c% |7 [" w5 FFrame rate : 24.000 FPS# P* t9 w8 J+ P, Z) m; {& z8 m
Color space : YUV
9 b/ [* r( q; \" |" UChroma subsampling : 4:2:0 (Type 2). }8 X! f, X+ x; F0 Q1 n+ \+ q
Bit depth : 10 bits
0 r: {4 T6 R# J" R% I5 OBits/(Pixel*Frame) : 0.140
3 e2 f& ?* u% o% mStream size : 13.6 GiB (96%)
. W9 g. ?9 r8 U; }* |; W+ M$ xWriting library : x265 3.5+13-4c6880de4:[Windows][GCC 11.2.0][64 bit] 10bit8 X! R5 e2 w9 g9 g% `$ A( L9 j
Encoding settings : cpuid=1111039 / frame-threads=4 / numa-pools=24 / wpp / no-pmode / no-pme / no-psnr / ssim / log-level=2 / input-csp=1 / input-res=3840x1608 / interlace=0 / total-frames=135273 / level-idc=51 / high-tier=1 / uhd-bd=0 / ref=4 / no-allow-non-conformance / repeat-headers / annexb / no-aud / no-eob / no-eos / hrd / info / hash=0 / no-temporal-layers / no-open-gop / min-keyint=5 / keyint=240 / gop-lookahead=0 / bframes=8 / b-adapt=2 / b-pyramid / bframe-bias=0 / rc-lookahead=72 / lookahead-slices=0 / scenecut=40 / no-hist-scenecut / radl=0 / no-splice / no-intra-refresh / ctu=64 / min-cu-size=8 / no-rect / no-amp / max-tu-size=32 / tu-inter-depth=1 / tu-intra-depth=1 / limit-tu=0 / rdoq-level=2 / dynamic-rd=0.00 / no-ssim-rd / signhide / no-tskip / nr-intra=0 / nr-inter=0 / no-constrained-intra / no-strong-intra-smoothing / max-merge=4 / limit-refs=3 / no-limit-modes / me=3 / subme=5 / merange=48 / temporal-mvp / no-frame-dup / hme / Level / merange / L0,L1,L2=16,32,48 / weightp / weightb / no-analyze-src-pics / deblock=-3:-3 / no-sao / no-sao-non-deblock / rd=4 / selective-sao=0 / no-early-skip / rskip / no-fast-intra / no-tskip-fast / no-cu-lossless / b-intra / no-splitrd-skip / rdpenalty=0 / psy-rd=2.00 / psy-rdoq=1.00 / no-rd-refine / no-lossless / cbqpoffs=0 / crqpoffs=0 / rc=crf / crf=14.0 / qcomp=0.65 / qpstep=4 / stats-write=0 / stats-read=0 / vbv-maxrate=160000 / vbv-bufsize=160000 / vbv-init=0.9 / min-vbv-fullness=50.0 / max-vbv-fullness=80.0 / crf-max=0.0 / crf-min=0.0 / ipratio=1.35 / pbratio=1.25 / aq-mode=2 / aq-strength=0.80 / no-cutree / zone-count=1 / zones: / start-frame=126800 / end-frame=135272 / qp=40 / no-strict-cbr / qg-size=32 / no-rc-grain / qpmax=69 / qpmin=0 / no-const-vbv / sar=1 / overscan=0 / videoformat=5 / range=0 / colorprim=1 / transfer=1 / colormatrix=1 / chromaloc=1 / chromaloc-top=2 / chromaloc-bottom=2 / display-window=0 / cll=0,0 / min-luma=0 / max-luma=1023 / log2-max-poc-lsb=8 / vui-timing-info / vui-hrd-info / slices=1 / no-opt-qp-pps / no-opt-ref-list-length-pps / no-multi-pass-opt-rps / scenecut-bias=0.05 / hist-threshold=0.03 / no-opt-cu-delta-qp / no-aq-motion / no-hdr10 / no-hdr10-opt / no-dhdr10-opt / no-idr-recovery-sei / analysis-reuse-level=0 / analysis-save-reuse-level=0 / analysis-load-reuse-level=0 / scale-factor=0 / refine-intra=0 / refine-inter=0 / refine-mv=1 / refine-ctu-distortion=0 / no-limit-sao / ctu-info=0 / no-lowpass-dct / refine-analysis-type=0 / copy-pic=1 / max-ausize-factor=1.0 / no-dynamic-refine / no-single-sei / no-hevc-aq / no-svt / no-field / qp-adaptation-range=1.00 / scenecut-aware-qp=0conformance-window-offsets / right=0 / bottom=0 / decoder-max-rate=0 / no-vbv-live-multi-pass
$ Z4 a5 t8 o2 D" g+ \) b+ P+ xDefault : Yes
8 e( ^+ m# f1 p6 s1 E7 U+ eForced : No
' o. _# f' U1 v3 IColor range : Limited  t3 i+ \/ m8 ~5 z5 M) k- M8 u0 H
Color primaries : BT.709. p$ z" J0 x. ?7 k" c8 f
Transfer characteristics : BT.709
% r6 k+ J1 {% WMatrix coefficients : BT.709
) Y/ Q! f! @  X3 F- a# }: {: n1 H  ~9 ?7 M/ _% `
" Y) T: z2 J" O  o! F
Audio
; w0 q( H& u3 P/ oID : 2
; b5 m; m6 S- r* q2 t% mFormat : E-AC-3 JOC
  j- l7 d2 A+ B- {/ o; HFormat/Info : Enhanced AC-3 with Joint Object Coding/ z0 e" F* e6 C  w
Commercial name : Dolby Digital Plus with Dolby Atmos
7 p2 ]  C* P5 k4 p$ @$ Z! ICodec ID : A_EAC3
7 f8 ]( _8 N' ODuration : 1 h 33 min" j& t6 V+ D1 f& Q
Bit rate mode : Constant' `' D* j3 k. ?& g: ~0 r$ ~$ y
Bit rate : 768 kb/s
5 _- K; @  k: y0 |Channel(s) : 6 channels
% R/ _  D% J' y! N+ n& `5 nChannel layout : L R C LFE Ls Rs( n4 p7 q; P& ^4 D& q3 w* f4 P9 A
Sampling rate : 48.0 kHz
( T+ Q  m- `/ r/ rFrame rate : 31.250 FPS (1536 SPF)
+ ?, U4 n% O3 eCompression mode : Lossy/ K6 c$ {, m9 k( Y. H
Delay relative to video : 6 ms  H; F) h0 f. G
Stream size : 516 MiB (4%): [" M% r- N# |6 K& i, W
Title : English
# S2 p3 P# o7 q0 O+ zLanguage : English. l7 f( X3 q" v/ T( T( u5 _
Service kind : Complete Main
& N' \+ `5 ^$ J$ k% d! T* q7 b+ |Default : No; I5 r4 ^: k9 f
Forced : No# s6 h3 D' @$ i3 ^
Complexity index : 16* R' a3 F: d, v5 z
Number of dynamic objects : 155 Y0 T/ y& X( q9 j; L5 O
Bed channel count : 1 channel- O/ M! P% }7 e4 U' c8 v
Bed channel configuration : LFE
# N2 ]6 P( Q- q8 Y. r0 E0 ~: LDefault : No
9 D  Y. }* R0 tForced : No

; W" ]9 o: ^" C* ]: D  L蓝光高清网提示您  点击下方附件名称  马上开始下载
' t" h- u% P  y+ o1 |1 l  x% e; d- R+ u9 @; `
入室惊魂/魔爪入室4k Intrusion.2021.2160p.NF.WEBRip.x265.10bit.SDR.DDP5.1.Atmos-4k电影下载3 F* \3 R# z+ X. r$ P' _( T; i
8 V4 k+ c8 ?: E' [! w7 K
魔爪入室4k Intrusion.2021.2160p.NF.WEBRip.x265.10bit.SDR.DDP5.1.Atmos简繁中字【4k SDR 14.13 】
: U- Q, r! o2 W8 {
魔爪入室4k Intrusion.2021.2160p.NF.WEBRip.x265.10bit.SDR.DDP5.1.Atmos-KiNGS.torrent (大小:18.31 KB) 9 B, X+ G1 \/ v( D
加入蓝光高清网VIP会员  无限制下载本站所有资源---点这里

资源下载、资源播放、字幕使用、无法下载等常见问题---点这里
回复

使用道具 举报

精彩评论1

sinoivanlee手机认证 发表于 2021-9-29 16:01:03 | 显示全部楼层
引狼入室,很可怕啊!
回复 支持 反对

使用道具 举报

您需要登录后才可以回帖 登录 | 立即注册

本版积分规则

烧友之家(蓝光高清网)本站内容部分由用户自主分享和转载自互联网,转载目的在于传递更多信息,并不代表本网赞同其观点和对其真实性负责。 如有侵权、违反国家法律政策行为,请联系我们,我们会第一时间及时清除和处理!
蓝光高清网 综合资讯平台
关注我们
  • 官方微信公众号
  • 扫码下载官方APP

X3.4 Licensed© 2001-2013 蓝光高清网 烧友之家APP |网站地图