游客您好
第三方账号登陆
  • 点击联系客服

    在线时间:9:00-18:00

    客服QQ

    1371333023

    电子邮件

    lanniao@1080pro.net
  • 烧友之家APP

    随时掌握烧友资讯

  • 扫描二维码

    关注微信公众号

推荐阅读
蓝鸟
未知星球 | 未知职业
  • 关注0
  • 粉丝2
  • 帖子95993
精选帖子
开启左侧

The.One.Youre.With.2021.2160p.WEB-DL.x265.10bit.SDR.DD5.1-4k电影下载—13.00GB

[复制链接]
蓝鸟 发表于 2021-9-28 11:54:25 | 显示全部楼层 |阅读模式 打印 上一主题 下一主题
The.One.Youre.With.
上映时间:2021年
类型:喜剧 爱情 
地区:美国 
导演:C. Bailey Werner
主演:
画质标准:4K  封装音轨:DTS-HD.MA 5.1 
豆瓣评分:
简       介:8 }1 p4 E5 _3 j8 l. H! h6 v

% w, T1 a1 @' R! Z3 t    A girl running from her past has a one-night stand with a guy who\'s stuck in his ways, only to wake up the next morning to discover they are forced to live together due to a nation-wide state of emergency.
, z) y: p, y9 Q: b' T1 M7 _& y% h' N4 p+ D$ X& _3 |1 @
影片参数' S! U% M8 Z% O7 l
The.One.Youre.With.2021.2160p.WEB-DL.x265.10bit.SDR.DD5.1-4k电影信息! q- X: J' Z! U* W$ c/ i
Video5 t2 H* |1 f9 D3 C# E
ID : 1
& {, S% v; \0 [" i  T# G9 ?Format : HEVC
2 h; B9 @( @% f# _Format/Info : High Efficiency Video Coding
$ Z! J$ d" q$ v/ O. c. I; M: zFormat profile : Main 10@L5@High. h6 Q9 G* q! D# i+ {6 A* ?6 ]
Codec ID : V_MPEGH/ISO/HEVC
2 N7 h% w- V) j: n7 DDuration : 1 h 28 min
, g8 z& M( ]' U: M9 u' W3 ?/ n. ABit rate : 20.7 Mb/s# V" a* F' j3 U9 g4 s8 n: w, Z) }
Width : 3 550 pixels+ X4 X! ~: a) V
Height : 2 160 pixels
% t/ R4 p# ]9 S2 dDisplay aspect ratio : 16:10% [% T7 I8 e! x+ `0 K9 }
Frame rate mode : Constant" ]" p: q& F& C/ V; T
Frame rate : 23.976 FPS2 Q$ Y2 ~. }* p3 Q* W: G+ l! D2 d' P
Color space : YUV% L  Z' f, F9 y, c
Chroma subsampling : 4:2:0. g0 X4 o! F0 d+ ]: d& J
Bit depth : 10 bits* Y8 w$ \! Q/ D* V( R
Bits/(Pixel*Frame) : 0.113
5 [% g/ m8 }5 MStream size : 12.8 GiB (98%)& f- S. r4 P* O1 ]& w" ~
Language : English
8 f0 d" x3 U' Y. |Default : Yes
# A6 o8 f4 [' Q- ZForced : No* Q6 i% x5 L  i8 f1 j8 L
Color range : Limited
0 E# L) ~4 J! BColor primaries : BT.709. s4 [, q- U! V+ ?
Transfer characteristics : BT.709" ?7 O- o; j+ I. ?! ^; ?
Matrix coefficients : BT.7096 X7 M4 n" x9 A8 X9 t3 e( |4 {

7 b# ]3 p/ F5 C) e

3 t% b. j7 N. z1 ~Audio) u1 d- m( F( o) q0 e. |
ID : 2- x' B) G  C5 S" C; h* c
Format : AC-3
* O6 S1 B/ N1 d; u, A) A: x) `- gFormat/Info : Audio Coding 39 |' P' G) |0 _
Commercial name : Dolby Digital
2 s7 P1 v# x  N  L) E# |0 VCodec ID : A_AC3
5 Q! I6 `9 B' k5 w+ TDuration : 1 h 28 min) W5 m, J9 q5 I) `+ H# L1 l1 X/ T9 Y
Bit rate mode : Constant" z- t( X: t7 `1 j) h2 c& J
Bit rate : 384 kb/s  Q3 L2 ]. z3 z/ z. A
Channel(s) : 6 channels
# h( W" `% m, n, cChannel layout : L R C LFE Ls Rs
  o. X4 _2 F$ a& A' e. i6 ?4 q4 CSampling rate : 48.0 kHz' f: Z6 c& W% T* y* @
Frame rate : 31.250 FPS (1536 SPF)
$ \- W* m* e1 y8 U9 i5 OCompression mode : Lossy
* s! \/ O2 i' l# tStream size : 242 MiB (2%)
' \$ A+ O3 L# G9 }Title : English  b0 [3 s, P& l3 U# A4 s( j3 d, a5 b
Language : English; T; `/ u' o! m4 |* G( \4 e
Service kind : Complete Main* L9 ^; B: H+ g9 z8 I! U) s, S
Default : No7 W9 E1 C2 E* _$ p: q
Forced : No

6 O* R& s; g" K( C, ~; @蓝光高清网提示您  点击下方附件名称  马上开始下载
  ?) @8 H  O! s- j8 h

' z$ s" Y! q# m+ T. J5 ^) c9 R2 yThe.One.Youre.With.2021.2160p.WEB-DL.x265.10bit.SDR.DD5.1-4k电影下载
( m- _% P8 F% C1 G6 T* F
: a' q* b; U. G7 OThe.One.Youre.With.2021.2160p.WEB-DL.x265.10bit.SDR.DD5.1【4k SDR 13.00  GB】! v# n, l  v. k( R
The.One.Youre.With.2021.2160p.WEB-DL.x265.10bit.SDR.DD5.1-NOGRP.torrent (大小:16.91 KB)
, J" h) f2 |6 n% |" L+ m  y
加入蓝光高清网VIP会员  无限制下载本站所有资源---点这里

资源下载、资源播放、字幕使用、无法下载等常见问题---点这里
回复

使用道具 举报

精彩评论5

ggang1 发表于 2021-9-29 09:33:04 | 显示全部楼层
谢楼主分享经典
回复 支持 反对

使用道具 举报

ggang1 发表于 2021-9-29 09:33:44 | 显示全部楼层
谢楼主分享经典
回复 支持 反对

使用道具 举报

sinoivanlee手机认证 发表于 2021-9-29 15:57:45 | 显示全部楼层
这是家庭爱情片么?很引人深思呢
回复 支持 反对

使用道具 举报

黑色史蒂夫 发表于 2021-10-1 20:32:18 | 显示全部楼层
感谢分享
回复

使用道具 举报

sinoivanlee手机认证 发表于 2021-10-2 14:27:57 | 显示全部楼层
爱情片?剧情片?看起来不错哦
回复 支持 反对

使用道具 举报

您需要登录后才可以回帖 登录 | 立即注册

本版积分规则

烧友之家(蓝光高清网)本站内容部分由用户自主分享和转载自互联网,转载目的在于传递更多信息,并不代表本网赞同其观点和对其真实性负责。 如有侵权、违反国家法律政策行为,请联系我们,我们会第一时间及时清除和处理!
蓝光高清网 综合资讯平台
关注我们
  • 官方微信公众号
  • 扫码下载官方APP

X3.4 Licensed© 2001-2013 蓝光高清网 烧友之家APP |网站地图