游客您好
第三方账号登陆
  • 点击联系客服

    在线时间:9:00-18:00

    客服QQ

    1371333023

    电子邮件

    lanniao@1080pro.net
  • 烧友之家APP

    随时掌握烧友资讯

  • 扫描二维码

    关注微信公众号

推荐阅读
蓝鸟
未知星球 | 未知职业
  • 关注0
  • 粉丝2
  • 帖子95993
精选帖子
开启左侧

[其他] 密室逃生2 Escape.Room.Tournament.Of.Champions.2021.EXTENDED.1080p.BluRay.REMUX.AVC.DTS-HD.MA.5.1-FGT 19.17GB

[复制链接]
蓝鸟 发表于 2021-9-28 13:09:06 | 显示全部楼层 |阅读模式 打印 上一主题 下一主题
本帖最后由 蓝鸟 于 2021-9-28 13:16 编辑

image.png

◎译  名 密室逃生2/Escape Room: Tournament of Champions/密室逃杀: 幸存者游戏(港)/密室逃杀2/密弑游戏2:胜者危亡(台)
◎片  名 Escape Room  2
◎年  代 2021
◎产  地 美国,南非
◎类  别 悬疑 / 惊悚
◎语  言 英语
◎上映日期 2021-07-16(美国)
◎豆瓣评分 6.7/10 from 24280 users
◎片  长 88分钟
◎导  演 亚当·罗比特尔 Adam Robitel
◎编  剧 玛丽亚·梅尔尼克 Maria Melnik / 奥伦·尤济尔 Oren Uziel / 克里斯蒂娜·拉瓦夫 Christine Lavaf / 弗里德里希·博姆 Friedrich B?hm / 布拉吉·F·舒特 Bragi F. Schut
◎主  演 泰勒·拉塞尔 Taylor Russell
       洛根·米勒 Logan Miller
       霍兰·罗登 Holland Roden
       茵蒂娅·摩尔 Indya Moore
       托马斯·康奎尔 Thomas Cocquerel
       伊莎贝拉·弗尔曼 Isabelle Fuhrman
       詹姆斯·弗莱恩 James Frain
       卡利托·奥利维罗 Carlito Olivero
       杰米-李·蒙尼 Jamie-Lee Money
       坦娅·范·格拉恩 Tanya van Graan
       阿维亚娜·亚伯拉罕 Avianah Abrahams
       杰米斯·巴特勒 Jaymes Butler
       杰伊·欧文 Jay Erving
       阿玛莉·沃德 Amali Ward
       蕾妮·戴蒙德 Renee Diamond
       埃文·亨斯特 Evan Hengst
◎标  签 密室 | 悬疑 | 惊悚 | 美国 | 解谜 | 冒险 | 2021 | 犯罪
◎简  介


  好莱坞惊悚大片《密室逃生2》由《速度与激情》系列金牌制片人重磅打造,前作曾创下中国影史进口惊悚片票房冠军。续作在闯关难度和惊险刺激程度上全面升级,集结全球顶级玩家合力解锁超高难度密室,开启命悬一线的残酷生存之战。
  1. Video
  2. ID                                       : 1
  3. ID in the original source medium         : 4113 (0x1011)
  4. Format                                   : AVC
  5. Format/Info                              : Advanced Video Codec
  6. Format profile                           : [email protected]
  7. Format settings                          : CABAC / 2 Ref Frames
  8. Format settings, CABAC                   : Yes
  9. Format settings, Reference frames        : 2 frames
  10. Format settings, GOP                     : M=1, N=10
  11. Codec ID                                 : V_MPEG4/ISO/AVC
  12. Duration                                 : 1 h 35 min
  13. Bit rate mode                            : Variable
  14. Bit rate                                 : 24.7 Mb/s
  15. Width                                    : 1 920 pixels
  16. Height                                   : 1 080 pixels
  17. Display aspect ratio                     : 16:9
  18. Frame rate mode                          : Constant
  19. Frame rate                               : 23.976 (24000/1001/189150) FPS
  20. Color space                              : YUV
  21. Chroma subsampling                       : 4:2:0
  22. Bit depth                                : 8 bits
  23. Scan type                                : Progressive
  24. Bits/(Pixel*Frame)                       : 0.498
  25. Stream size                              : 16.5 GiB (86%)
  26. Language                                 : English
  27. Default                                  : No
  28. Forced                                   : No
  29. Original source medium                   : Blu-ray
  30. Audio #1
  31. ID                                       : 2
  32. ID in the original source medium         : 4352 (0x1100)
  33. Format                                   : DTS XLL
  34. Format/Info                              : Digital Theater Systems
  35. Commercial name                          : DTS-HD Master Audio
  36. Codec ID                                 : A_DTS
  37. Duration                                 : 1 h 35 min
  38. Bit rate mode                            : Variable
  39. Bit rate                                 : 2 344 kb/s
  40. Channel(s)                               : 6 channels
  41. Channel layout                           : C L R Ls Rs LFE
  42. Sampling rate                            : 48.0 kHz
  43. Frame rate                               : 93.750 FPS (512 SPF)
  44. Bit depth                                : 16 bits
  45. Compression mode                         : Lossless
  46. Stream size                              : 1.57 GiB (8%)
  47. Title                                    : DTS-HD MA 5.1
  48. Language                                 : English
  49. Default                                  : Yes
  50. Forced                                   : No
  51. Original source medium                   : Blu-ray
  52. Audio #2
  53. ID                                       : 3
  54. ID in the original source medium         : 4353 (0x1101)
  55. Format                                   : AC-3
  56. Format/Info                              : Audio Coding 3
  57. Commercial name                          : Dolby Digital
  58. Format settings                          : Dolby Surround
  59. Codec ID                                 : A_AC3
  60. Duration                                 : 1 h 35 min
  61. Bit rate mode                            : Constant
  62. Bit rate                                 : 192 kb/s
  63. Channel(s)                               : 2 channels
  64. Channel layout                           : L R
  65. Sampling rate                            : 48.0 kHz
  66. Frame rate                               : 31.250 FPS (1536 SPF)
  67. Compression mode                         : Lossy
  68. Stream size                              : 132 MiB (1%)
  69. Title                                    : DD 2.0
  70. Language                                 : English
  71. Service kind                             : Complete Main
  72. Default                                  : No
  73. Forced                                   : No
  74. Original source medium                   : Blu-ray
  75. Audio #3
  76. ID                                       : 4
  77. ID in the original source medium         : 4354 (0x1102)
  78. Format                                   : AC-3
  79. Format/Info                              : Audio Coding 3
  80. Commercial name                          : Dolby Digital
  81. Codec ID                                 : A_AC3
  82. Duration                                 : 1 h 35 min
  83. Bit rate mode                            : Constant
  84. Bit rate                                 : 640 kb/s
  85. Channel(s)                               : 6 channels
  86. Channel layout                           : L R C LFE Ls Rs
  87. Sampling rate                            : 48.0 kHz
  88. Frame rate                               : 31.250 FPS (1536 SPF)
  89. Compression mode                         : Lossy
  90. Stream size                              : 438 MiB (2%)
  91. Title                                    : DD  5.1
  92. Language                                 : Hungarian
  93. Service kind                             : Complete Main
  94. Default                                  : No
  95. Forced                                   : No
  96. Original source medium                   : Blu-ray
  97. Audio #4
  98. ID                                       : 5
  99. ID in the original source medium         : 4355 (0x1103)
  100. Format                                   : AC-3
  101. Format/Info                              : Audio Coding 3
  102. Commercial name                          : Dolby Digital
  103. Codec ID                                 : A_AC3
  104. Duration                                 : 1 h 35 min
  105. Bit rate mode                            : Constant
  106. Bit rate                                 : 640 kb/s
  107. Channel(s)                               : 6 channels
  108. Channel layout                           : L R C LFE Ls Rs
  109. Sampling rate                            : 48.0 kHz
  110. Frame rate                               : 31.250 FPS (1536 SPF)
  111. Compression mode                         : Lossy
  112. Stream size                              : 438 MiB (2%)
  113. Title                                    : DD  5.1
  114. Language                                 : Polish
  115. Service kind                             : Complete Main
  116. Default                                  : No
  117. Forced                                   : No
  118. Original source medium                   : Blu-ray
  119. Text #1
  120. ID                                       : 6
  121. Format                                   : UTF-8
  122. Codec ID                                 : S_TEXT/UTF8
  123. Codec ID/Info                            : UTF-8 Plain Text
  124. Duration                                 : 1 h 28 min
  125. Bit rate                                 : 67 b/s
  126. Count of elements                        : 1328
  127. Stream size                              : 43.6 KiB (0%)
  128. Language                                 : English
  129. Default                                  : Yes
  130. Forced                                   : No
  131. Text #2
  132. ID                                       : 7
  133. Format                                   : UTF-8
  134. Codec ID                                 : S_TEXT/UTF8
  135. Codec ID/Info                            : UTF-8 Plain Text
  136. Duration                                 : 1 h 28 min
  137. Bit rate                                 : 76 b/s
  138. Count of elements                        : 1513
  139. Stream size                              : 49.8 KiB (0%)
  140. Title                                    : SDH
  141. Language                                 : English
  142. Default                                  : No
  143. Forced                                   : No
  144. Text #3
  145. ID                                       : 8
  146. ID in the original source medium         : 4608 (0x1200)
  147. Format                                   : PGS
  148. Muxing mode                              : zlib
  149. Codec ID                                 : S_HDMV/PGS
  150. Codec ID/Info                            : Picture based subtitle format used on BDs/HD-DVDs
  151. Duration                                 : 1 h 28 min
  152. Bit rate                                 : 40.7 kb/s
  153. Count of elements                        : 2658
  154. Stream size                              : 25.8 MiB (0%)
  155. Title                                    : SDH
  156. Language                                 : English
  157. Default                                  : No
  158. Forced                                   : No
  159. Original source medium                   : Blu-ray
  160. Text #4
  161. ID                                       : 9
  162. ID in the original source medium         : 4609 (0x1201)
  163. Format                                   : PGS
  164. Muxing mode                              : zlib
  165. Codec ID                                 : S_HDMV/PGS
  166. Codec ID/Info                            : Picture based subtitle format used on BDs/HD-DVDs
  167. Duration                                 : 1 h 28 min
  168. Bit rate                                 : 46.9 kb/s
  169. Count of elements                        : 3028
  170. Stream size                              : 29.8 MiB (0%)
  171. Language                                 : English
  172. Default                                  : No
  173. Forced                                   : No
  174. Original source medium                   : Blu-ray
  175. Text #5
  176. ID                                       : 10
  177. ID in the original source medium         : 4610 (0x1202)
  178. Format                                   : PGS
  179. Muxing mode                              : zlib
  180. Codec ID                                 : S_HDMV/PGS
  181. Codec ID/Info                            : Picture based subtitle format used on BDs/HD-DVDs
  182. Duration                                 : 1 h 34 min
  183. Bit rate                                 : 27.6 kb/s
  184. Count of elements                        : 2795
  185. Stream size                              : 18.7 MiB (0%)
  186. Language                                 : Hebrew
  187. Default                                  : No
  188. Forced                                   : No
  189. Original source medium                   : Blu-ray
  190. Text #6
  191. ID                                       : 11
  192. ID in the original source medium         : 4611 (0x1203)
  193. Format                                   : PGS
  194. Muxing mode                              : zlib
  195. Codec ID                                 : S_HDMV/PGS
  196. Codec ID/Info                            : Picture based subtitle format used on BDs/HD-DVDs
  197. Duration                                 : 1 h 34 min
  198. Bit rate                                 : 36.1 kb/s
  199. Count of elements                        : 2702
  200. Stream size                              : 24.5 MiB (0%)
  201. Language                                 : Hungarian
  202. Default                                  : No
  203. Forced                                   : No
  204. Original source medium                   : Blu-ray
  205. Text #7
  206. ID                                       : 12
  207. ID in the original source medium         : 4612 (0x1204)
  208. Format                                   : PGS
  209. Muxing mode                              : zlib
  210. Codec ID                                 : S_HDMV/PGS
  211. Codec ID/Info                            : Picture based subtitle format used on BDs/HD-DVDs
  212. Duration                                 : 1 h 34 min
  213. Bit rate                                 : 34.3 kb/s
  214. Count of elements                        : 2693
  215. Stream size                              : 23.2 MiB (0%)
  216. Language                                 : Icelandic
  217. Default                                  : No
  218. Forced                                   : No
  219. Original source medium                   : Blu-ray
  220. Text #8
  221. ID                                       : 13
  222. ID in the original source medium         : 4613 (0x1205)
  223. Format                                   : PGS
  224. Muxing mode                              : zlib
  225. Codec ID                                 : S_HDMV/PGS
  226. Codec ID/Info                            : Picture based subtitle format used on BDs/HD-DVDs
  227. Duration                                 : 1 h 34 min
  228. Bit rate                                 : 31.9 kb/s
  229. Count of elements                        : 2717
  230. Stream size                              : 21.6 MiB (0%)
  231. Language                                 : Polish
  232. Default                                  : No
  233. Forced                                   : No
  234. Original source medium                   : Blu-ray
  235. Menu
  236. 00:00:00.000                             : Chapter 01
  237. 00:19:06.770                             : Chapter 02
  238. 00:25:27.567                             : Chapter 03
  239. 00:30:42.882                             : Chapter 04
  240. 00:33:33.886                             : Chapter 05
  241. 00:38:49.952                             : Chapter 06
  242. 00:41:18.476                             : Chapter 07
  243. 00:43:18.345                             : Chapter 08
  244. 00:48:28.113                             : Chapter 09
  245. 00:51:47.062                             : Chapter 10
  246. 00:54:30.934                             : Chapter 11
  247. 01:00:02.599                             : Chapter 12
  248. 01:04:35.204                             : Chapter 13
  249. 01:09:26.787                             : Chapter 14
  250. 01:11:07.554                             : Chapter 15
  251. 01:15:05.918                             : Chapter 16
复制代码

205ee2a1bc3002f4692ed72500a0be09.png
1e708f025594ae3ad41f87fc100a197a.png

蓝光高清网提示您  点击下方附件名称  马上开始下载


密室逃生2 Escape.Room.Tournament.Of.Champions.2021.EXTENDED.1080p.BluRay.REMUX.AVC.DTS-HD.MA.5.1-FGT 19.17GB
Escape.Room.Tournament.Of.Champions.2021.EXTENDED.1080p.BluRay.REMUX.AVC.DTS-HD..torrent (大小:24.68 KB)


密室逃生2 Escape.Room.Tournament.Of.Champions.2021.THEATRICAL.1080p.BluRay.REMUX.AVC.DTS-HD.MA.5.1-FGT 17.65GB
Escape.Room.Tournament.Of.Champions.2021.THEATRICAL.1080p.BluRay.REMUX.AVC.DTS-H.torrent (大小:22.77 KB)
加入蓝光高清网VIP会员  无限制下载本站所有资源---点这里

资源下载、资源播放、字幕使用、无法下载等常见问题---点这里
回复

使用道具 举报

您需要登录后才可以回帖 登录 | 立即注册

本版积分规则

烧友之家(蓝光高清网)本站内容部分由用户自主分享和转载自互联网,转载目的在于传递更多信息,并不代表本网赞同其观点和对其真实性负责。 如有侵权、违反国家法律政策行为,请联系我们,我们会第一时间及时清除和处理!
蓝光高清网 综合资讯平台
关注我们
  • 官方微信公众号
  • 扫码下载官方APP

X3.4 Licensed© 2001-2013 蓝光高清网 烧友之家APP |网站地图