游客您好
第三方账号登陆
  • 点击联系客服

    在线时间:9:00-18:00

    客服QQ

    1371333023

    电子邮件

    lanniao@1080pro.net
  • 烧友之家APP

    随时掌握烧友资讯

  • 扫描二维码

    关注微信公众号

推荐阅读
蓝鸟
未知星球 | 未知职业
  • 关注0
  • 粉丝2
  • 帖子95993
精选帖子
开启左侧

[剧情片] 侵犯/触犯 Violation.2020.1080p.BluRay.REMUX.AVC.DTS-HD.MA.5.1-FGT 17.71GB

[复制链接]
蓝鸟 发表于 2021-9-28 13:12:44 | 显示全部楼层 |阅读模式 打印 上一主题 下一主题
本帖最后由 蓝鸟 于 2021-9-28 13:19 编辑

image.png

◎译  名 侵犯/触犯
◎片  名 Violation
◎年  代 2020
◎产  地 加拿大
◎类  别 剧情 / 恐怖
◎语  言 英语
◎上映日期 2020-09-14(多伦多电影节) / 2021-03-25(美国网络)
◎豆瓣评分 5.3/10 from 178 users
◎导  演 达斯蒂·曼奇内利 Dusty Mancinelli
◎编  剧 玛德琳·西姆斯-菲尔 Madeleine Sims-Fewer / 达斯蒂·曼奇内利 Dusty Mancinelli
◎主  演 辛提加·阿斯佩格 Cintija Asperger
       贾斯敏·盖廖 Jasmin Geljo
       玛德琳·西姆斯-菲尔 Madeleine Sims-Fewer
       杰西·拉维科姆  Jesse LaVercombe
◎标  签 加拿大 | 惊悚 | 复仇 | 2020 | 女性 | 恐怖 | 加拿大电影 | 加拿大電影
◎简  介


  A traumatic betrayal drives a woman towards a vengeful extremity.
◎获奖情况
  第45届多伦多国际电影节 ?(2020)
  观众选择奖午夜疯狂单元(提名)
  最佳加拿大电影(提名)
  1. Video
  2. ID                                       : 1
  3. ID in the original source medium         : 4113 (0x1011)
  4. Format                                   : AVC
  5. Format/Info                              : Advanced Video Codec
  6. Format profile                           : [email protected]
  7. Format settings                          : CABAC / 4 Ref Frames
  8. Format settings, CABAC                   : Yes
  9. Format settings, Reference frames        : 4 frames
  10. Codec ID                                 : V_MPEG4/ISO/AVC
  11. Duration                                 : 1 h 47 min
  12. Bit rate mode                            : Variable
  13. Bit rate                                 : 19.9 Mb/s
  14. Maximum bit rate                         : 36.0 Mb/s
  15. Width                                    : 1 920 pixels
  16. Height                                   : 1 080 pixels
  17. Display aspect ratio                     : 16:9
  18. Frame rate mode                          : Constant
  19. Frame rate                               : 23.976 (24000/1001/189150) FPS
  20. Color space                              : YUV
  21. Chroma subsampling                       : 4:2:0
  22. Bit depth                                : 8 bits
  23. Scan type                                : Progressive
  24. Bits/(Pixel*Frame)                       : 0.400
  25. Stream size                              : 15.0 GiB (84%)
  26. Language                                 : English
  27. Default                                  : No
  28. Forced                                   : No
  29. Original source medium                   : Blu-ray
  30. Audio
  31. ID                                       : 2
  32. ID in the original source medium         : 4352 (0x1100)
  33. Format                                   : DTS XLL
  34. Format/Info                              : Digital Theater Systems
  35. Commercial name                          : DTS-HD Master Audio
  36. Codec ID                                 : A_DTS
  37. Duration                                 : 1 h 47 min
  38. Bit rate mode                            : Variable
  39. Bit rate                                 : 3 648 kb/s
  40. Channel(s)                               : 6 channels
  41. Channel layout                           : C L R Ls Rs LFE
  42. Sampling rate                            : 48.0 kHz
  43. Frame rate                               : 93.750 FPS (512 SPF)
  44. Bit depth                                : 24 bits
  45. Compression mode                         : Lossless
  46. Stream size                              : 2.75 GiB (16%)
  47. Title                                    : DTS-HD MA 5.1
  48. Language                                 : English
  49. Default                                  : Yes
  50. Forced                                   : No
  51. Original source medium                   : Blu-ray
  52. Text #1
  53. ID                                       : 3
  54. Format                                   : UTF-8
  55. Codec ID                                 : S_TEXT/UTF8
  56. Codec ID/Info                            : UTF-8 Plain Text
  57. Duration                                 : 1 h 44 min
  58. Bit rate                                 : 34 b/s
  59. Count of elements                        : 887
  60. Stream size                              : 26.4 KiB (0%)
  61. Title                                    : SRT
  62. Language                                 : English
  63. Default                                  : Yes
  64. Forced                                   : No
  65. Text #2
  66. ID                                       : 4
  67. ID in the original source medium         : 4608 (0x1200)
  68. Format                                   : PGS
  69. Muxing mode                              : zlib
  70. Codec ID                                 : S_HDMV/PGS
  71. Codec ID/Info                            : Picture based subtitle format used on BDs/HD-DVDs
  72. Duration                                 : 1 h 47 min
  73. Bit rate                                 : 17.4 kb/s
  74. Count of elements                        : 2500
  75. Stream size                              : 13.4 MiB (0%)
  76. Language                                 : English
  77. Default                                  : No
  78. Forced                                   : No
  79. Original source medium                   : Blu-ray
  80. Menu
  81. 00:00:00.000                             : Chapter 01
  82. 00:10:45.561                             : Chapter 02
  83. 00:25:57.556                             : Chapter 03
  84. 00:35:06.062                             : Chapter 04
  85. 00:43:52.588                             : Chapter 05
  86. 01:03:40.024                             : Chapter 06
  87. 01:20:19.439                             : Chapter 07
  88. 01:45:02.296                             : Chapter 08
复制代码

018d7d179e0a2d54ec0b52610c4bd871.png
aa503072a0b1a5533f7f3721f43b81b7.png
b2ee38c7c6ee5cf6a26ed724d5764d66.png

蓝光高清网提示您  点击下方附件名称  马上开始下载


侵犯/触犯 Violation.2020.1080p.BluRay.REMUX.AVC.DTS-HD.MA.5.1-FGT 17.71GB
Violation.2020.1080p.BluRay.REMUX.AVC.DTS-HD.MA.5.1-FGT 1.torrent (大小:22.77 KB)
加入蓝光高清网VIP会员  无限制下载本站所有资源---点这里

资源下载、资源播放、字幕使用、无法下载等常见问题---点这里
回复

使用道具 举报

精彩评论1

slj602手机认证 发表于 2021-9-28 19:49:49 | 显示全部楼层
感谢楼主发帖
回复 支持 反对

使用道具 举报

您需要登录后才可以回帖 登录 | 立即注册

本版积分规则

烧友之家(蓝光高清网)本站内容部分由用户自主分享和转载自互联网,转载目的在于传递更多信息,并不代表本网赞同其观点和对其真实性负责。 如有侵权、违反国家法律政策行为,请联系我们,我们会第一时间及时清除和处理!
蓝光高清网 综合资讯平台
关注我们
  • 官方微信公众号
  • 扫码下载官方APP

X3.4 Licensed© 2001-2013 蓝光高清网 烧友之家APP |网站地图