蓝光高清网

开启左侧

战栗公寓 / 杀无舍 / 无人生还/诡屋惊魂4kNo.One.Gets.Out.Alive.2021.2160p.NF.WEBRip.x265.10bit.HD

[复制链接]

2022-1-15 09:28:02 8146 2

蓝鸟 发表于 2021-10-6 10:45:22 |阅读模式

蓝鸟 楼主

2021-10-6 10:45:22

诡屋惊魂
上映时间:2021年
类型:惊悚 恐怖 悬疑 
地区:英国 
导演:桑迪亚哥·蒙希尼
主演:马克·门查卡 克里斯蒂娜·罗朵
画质标准:4K  封装音轨:DTS-HD.MA 5.1 
豆瓣评分:5.5分
简       介
* m1 r  _- Y& a7 ]& O
5 f( B6 g/ U8 D  安巴尔是一名追寻美国梦的移民,但在被迫住进一栋寄宿公寓后,她发现自己陷入了一场无法逃脱的噩梦。8 C# T) \0 d3 [( J' D

* Q; k6 p: d. ]影片参数
5 p/ h! Z, f- T' d9 d, |# F
# M2 O8 s& ?* d8 b) J, k8 p0 a
& t8 Y9 b, L% R/ l6 r
战栗公寓 / 杀无舍 / 无人生还/诡屋惊魂4kNo.One.Gets.Out.Alive.2021.2160p.NF.WEBRip.x265.10bit.HDR.DDP5.1.Atmos-4k电影信息
2 M! }+ L- E1 E1 q1 r1 VVideo4 z. _0 m3 i5 t. u6 G
ID : 1& f2 |5 x, {. j
Format : HEVC
: w5 `% g# s5 P5 u) M% p( m; {Format/Info : High Efficiency Video Coding0 h  j) s5 B, n' ^' u! w3 s8 |0 M3 M5 D
Format profile : Main 10@L5.1@High$ K; r8 G! L7 F( Y# c
HDR format : SMPTE ST 2086, HDR10 compatible
' K2 E$ c) p* BCodec ID : V_MPEGH/ISO/HEVC1 ~5 @% m& x4 D  B" C- j
Duration : 1 h 25 min6 `. Y8 i; t( @/ B( K! k  ~$ j
Bit rate : 17.8 Mb/s
4 w7 m$ F7 s, [( `Width : 3 840 pixels2 R" i  o7 `- T) }- e
Height : 1 696 pixels  h3 T8 ~  x5 `% v
Display aspect ratio : 2.25:1
& |% l& w, f  ]' l, YFrame rate mode : Constant/ h3 k8 Q$ J6 ]" A& x3 f
Frame rate : 24.000 FPS3 H7 I) [/ y% ~, Z- E2 v5 u9 e& U
Color space : YUV; N9 x. B8 }( E
Chroma subsampling : 4:2:0 (Type 2)' x7 ~" i8 ^. d9 g
Bit depth : 10 bits# w- K! `: O* z* T) k& K( ^& A5 W3 E
Bits/(Pixel*Frame) : 0.1142 A/ v  K2 m9 Q. O8 x1 U9 {* O$ z/ d9 _
Stream size : 10.6 GiB (96%)- [4 P: \( S; i: q) R5 }% \
Writing library : x265 3.5+9-bf91444e0:[Windows][GCC 10.0.0][64 bit] 10bit3 |0 V5 X, R8 K/ K
Encoding settings : cpuid=1111039 / frame-threads=4 / numa-pools=16 / wpp / no-pmode / no-pme / no-psnr / no-ssim / log-level=2 / input-csp=1 / input-res=3840x1696 / interlace=0 / total-frames=0 / level-idc=51 / high-tier=1 / uhd-bd=0 / ref=4 / no-allow-non-conformance / repeat-headers / annexb / no-aud / no-eob / no-eos / no-hrd / info / hash=0 / no-temporal-layers / no-open-gop / min-keyint=24 / keyint=250 / gop-lookahead=0 / bframes=3 / b-adapt=2 / b-pyramid / bframe-bias=0 / rc-lookahead=20 / lookahead-slices=8 / scenecut=40 / hist-scenecut=0 / radl=0 / no-splice / no-intra-refresh / ctu=64 / min-cu-size=8 / no-rect / no-amp / max-tu-size=32 / tu-inter-depth=1 / tu-intra-depth=1 / limit-tu=0 / rdoq-level=0 / dynamic-rd=0.00 / no-ssim-rd / signhide / no-tskip / nr-intra=0 / nr-inter=0 / no-constrained-intra / no-strong-intra-smoothing / max-merge=3 / limit-refs=1 / no-limit-modes / me=1 / subme=2 / merange=57 / temporal-mvp / no-frame-dup / no-hme / weightp / no-weightb / no-analyze-src-pics / deblock=-3:-3 / no-sao / no-sao-non-deblock / rd=3 / selective-sao=0 / early-skip / rskip / no-fast-intra / no-tskip-fast / no-cu-lossless / b-intra / no-splitrd-skip / rdpenalty=0 / psy-rd=2.00 / psy-rdoq=0.00 / no-rd-refine / no-lossless / cbqpoffs=0 / crqpoffs=0 / rc=crf / crf=19.0 / qcomp=0.60 / qpstep=4 / stats-write=0 / stats-read=0 / vbv-maxrate=160000 / vbv-bufsize=160000 / vbv-init=0.9 / min-vbv-fullness=50.0 / max-vbv-fullness=80.0 / crf-max=0.0 / crf-min=0.0 / ipratio=1.40 / pbratio=1.30 / aq-mode=2 / aq-strength=1.00 / no-cutree / zone-count=0 / no-strict-cbr / qg-size=32 / no-rc-grain / qpmax=69 / qpmin=0 / no-const-vbv / sar=0 / overscan=0 / videoformat=5 / range=0 / colorprim=9 / transfer=16 / colormatrix=9 / chromaloc=1 / chromaloc-top=2 / chromaloc-bottom=2 / display-window=0 / master-display=G(13250,34500)B(7500,3000)R(34000,16000)WP(15635,16450)L(10000000,1) / cll=998,144 / min-luma=0 / max-luma=1023 / log2-max-poc-lsb=8 / vui-timing-info / vui-hrd-info / slices=1 / no-opt-qp-pps / no-opt-ref-list-length-pps / no-multi-pass-opt-rps / scenecut-bias=0.05 / hist-threshold=0.03 / no-opt-cu-delta-qp / no-aq-motion / hdr10 / hdr10-opt / no-dhdr10-opt / no-idr-recovery-sei / analysis-reuse-level=0 / analysis-save-reuse-level=0 / analysis-load-reuse-level=0 / scale-factor=0 / refine-intra=0 / refine-inter=0 / refine-mv=1 / refine-ctu-distortion=0 / no-limit-sao / ctu-info=0 / no-lowpass-dct / refine-analysis-type=0 / copy-pic=1 / max-ausize-factor=1.0 / no-dynamic-refine / no-single-sei / no-hevc-aq / no-svt / no-field / qp-adaptation-range=1.00 / scenecut-aware-qp=0conformance-window-offsets / right=0 / bottom=0 / decoder-max-rate=0 / no-vbv-live-multi-pass/ W  s; l( N9 A. }, o' p; @
Default : Yes
, h4 l8 O% ~1 N: ]2 ~9 I5 ZForced : No
5 }( B5 W) [, nColor range : Limited
1 j: V; n1 \" C- ?2 GColor primaries : BT.2020- v( f4 t  X+ ~0 H& \9 S4 r( t
Transfer characteristics : PQ
1 n) ~# ^6 N" K% S4 mMatrix coefficients : BT.2020 non-constant
: v2 N' Q7 n/ N2 \Mastering display color primaries : Display P3
$ Z, z5 y$ P9 {8 F; P8 v% jMastering display luminance : min: 0.0001 cd/m2, max: 1000 cd/m2, T% X" i0 P) n/ A+ L
Maximum Content Light Level : 998 cd/m2) H: p1 j, y' Y, s
Maximum Frame-Average Light Level : 144 cd/m2
) V1 J: Z7 G" K
( b3 |/ [$ `  g) \2 z

& O" K& g1 W+ J! cAudio
6 R' w! o. c; d% X# e8 {ID : 2
" p* Z0 w2 F9 u# P7 L8 T0 LFormat : E-AC-3 JOC2 m5 J6 @4 d8 V9 u: u
Format/Info : Enhanced AC-3 with Joint Object Coding
$ `' l* ~6 V, r* ?) Z" O4 ^Commercial name : Dolby Digital Plus with Dolby Atmos0 X; j  Z$ C* J' ]
Codec ID : A_EAC3+ r* Q, r) C4 D$ {, B
Duration : 1 h 27 min
* K% Z. y5 f* Q* @5 F$ zBit rate mode : Constant
6 A/ Z! l1 t9 J, LBit rate : 768 kb/s
( r# N8 J# g" S" l- C1 KChannel(s) : 6 channels- Y% q" e* q, \$ P5 N6 n8 ^
Channel layout : L R C LFE Ls Rs1 L6 U9 R6 J9 [+ k# P9 g9 W
Sampling rate : 48.0 kHz$ I  n) H5 S' {1 s
Frame rate : 31.250 FPS (1536 SPF)! j  E/ K+ i/ Q& M4 q; m. v
Compression mode : Lossy3 W7 o: M4 B8 j  L7 K, x
Delay relative to video : 25 ms
2 I/ r5 j$ z/ [8 L/ pStream size : 480 MiB (4%)
) j8 @4 d' ?  n7 E  [Language : English! ~4 {9 P$ x: P1 }' ^
Service kind : Complete Main
# c3 V. x7 X& r( v  qDefault : Yes
% D6 Y# `2 ?; o1 |8 d; ?( R8 a1 yForced : No
/ T% ]+ ]8 X6 lComplexity index : 16
, r& Y, ~8 j1 ?+ y1 q! |Number of dynamic objects : 15
  C% }8 m& \; y3 p7 ZBed channel count : 1 channel
& ?3 ?- c" q$ F" ?Bed channel configuration : LFE

: m' i, ~+ Y; ^6 @/ l蓝光高清网提示您  点击下方附件名称  马上开始下载

. N; ~9 s; P- T9 t! x, \
! y, [4 B$ P# V- z6 o: @
战栗公寓 / 杀无舍 / 无人生还/诡屋惊魂4kNo.One.Gets.Out.Alive.2021.2160p.NF.WEBRip.x265.10bit.HDR.DDP5.1.Atmos-4k电影下载
5 W, n+ H4 n% X$ O

. o6 c. Y) X% T7 k9 `# ]6 i诡屋惊魂4kNo.One.Gets.Out.Alive.2021.2160p.NF.WEBRip.x265.10bit.HDR.DDP5.1.Atmos简繁中字【4k HDR 11.09】
' L$ ?2 W  A, V" `3 Q9 t 诡屋惊魂4k No.One.Gets.Out.Alive.2021.2160p.NF.WEBRip.x265.10bit.HDR.DDP5.1.Atmos-182K.torrent (14.52 KB)
加入蓝光高清网VIP会员  无限制下载本站所有资源---点这里

资源下载、资源播放、字幕使用、无法下载等常见问题---点这里
回复

使用道具 举报

全部回复2

Bean手机认证 发表于 2022-1-14 21:12:12

Bean 沙发

2022-1-14 21:12:12

感谢分享!
回复

使用道具 举报

再会未来 发表于 2022-1-15 09:28:02

再会未来 板凳

2022-1-15 09:28:02

不错的资源
回复 支持 反对

使用道具 举报

发表回复

您需要登录后才可以回帖 登录 | 立即注册

返回列表 本版积分规则

  • 发帖

  • 在线客服

  • 微信

  • 客户端

  • 返回顶部