游客您好
第三方账号登陆
  • 点击联系客服

    在线时间:9:00-18:00

    客服QQ

    1371333023

    电子邮件

    lanniao@1080pro.net
  • 烧友之家APP

    随时掌握烧友资讯

  • 扫描二维码

    关注微信公众号

推荐阅读
蓝鸟
未知星球 | 未知职业
  • 关注0
  • 粉丝2
  • 帖子95993
精选帖子
开启左侧

福奇 4k Fauci.2021.HDR.2160p.WEB.h265-4k电影下载【12.07 GB】

[复制链接]
蓝鸟 发表于 2021-10-7 09:53:03 | 显示全部楼层 |阅读模式 打印 上一主题 下一主题
福奇
上映时间:2021年
类型:纪录 历史 
地区:美国 
导演:约翰·霍夫曼 / 珍妮特·托比亚斯
主演:安东尼·福奇 / 博诺 / 比尔·盖茨 / 乔治·W· 布什 / Francis Collins
画质标准:4K HDR  封装音轨:Dolby TrueHD 5.1 DTS-HD.MA.2.0 
豆瓣评分:无评分
简       介
7 h$ w, z8 n, |6 Z, t$ a; l2 _) ^4 o  q/ C# W) ~- W7 g' ~$ }
$ _8 i% g3 I9 C, G4 F& L1 H+ J
  国家地理打造的安东尼·福奇纪录片[福奇](Fauci,暂译)释出先导预告!该片由约翰·霍夫曼([合众为一])、珍妮特·托比亚斯([洞穴求生])共同执导。影片将追溯福奇的职业生涯,重点介绍他在艾滋病方面的工作,以及现在对抗新冠病毒的工作。该片采访对象包括小布什、比尔·盖茨等。5 {- n2 S0 \8 J: x, ]* _+ c

" s% J0 D" g+ o. F  J  k

% O8 w, u8 e7 Z( j% G7 M影片参数
* r6 C# l. M/ K% C$ z6 p
福奇4k Fauci.2021.HDR.2160p.WEB.h265-4k电影信息! E9 w% G. g  [6 {, U
Video
2 \3 J* a6 ?8 U" [" TID : 1
) k! i1 s" R2 B' z! j$ s3 sFormat : HEVC. v" N$ w' n, b4 G# L
Format/Info : High Efficiency Video Coding
6 G3 q* v5 _8 [$ e$ Y; N; gFormat profile : Main 10@L5@High
; ^& ]* G7 p, v5 ]9 ]5 [' {! T" ZHDR format : SMPTE ST 2086, HDR10 compatible0 \8 f+ ?4 }  E7 Z+ Y: l2 w
Codec ID : V_MPEGH/ISO/HEVC
. }$ ?* [+ [, z$ |! mDuration : 1 h 44 min( y9 o$ r2 N5 n) |+ x
Bit rate : 16.3 Mb/s
, `, N) F7 O' p  n! r( GWidth : 3 840 pixels) v8 f3 {$ J2 B( E  [0 M
Height : 2 160 pixels4 {* j7 d, o4 T0 z+ q2 g9 Q6 V
Display aspect ratio : 16:9
# H  }% b8 r( B9 Q2 j/ c# cFrame rate mode : Constant4 y: H' [, Y* C7 Z( Q
Frame rate : 23.976 (24000/1001) FPS
1 S- X4 [9 W( wColor space : YUV" }- B2 D& H7 }9 x* |6 Z' }
Chroma subsampling : 4:2:0% W' h1 m' h( P- f/ Q, A% v* d
Bit depth : 10 bits! s8 ?, E' \4 L. X* B$ {# j
Bits/(Pixel*Frame) : 0.082
# |/ u8 G) P7 K- J) z) E' q, TStream size : 11.9 GiB (98%)
7 y/ Q, D5 c0 h5 ]1 K3 M, J4 ]/ w' PLanguage : English
8 l* e8 G) M4 E2 n7 BDefault : Yes" |9 I5 n4 C, N* E5 f" F: n0 {* V
Forced : No0 D  `6 r5 c8 l/ j0 H) P3 ~+ _. K. l
Color range : Limited
) {% p' A$ l6 Q7 i0 N8 }- |" v4 d. ~Color primaries : BT.2020
2 _9 F! _# L: B( tTransfer characteristics : PQ. D% K7 S4 h5 |( q0 t' m
Matrix coefficients : BT.2020 non-constant
5 x  H( e5 ~6 T8 w, L+ B7 R  Q* d% MMastering display color primaries : Display P36 F2 ~" ?8 W2 \0 |  s) X
Mastering display luminance : min: 0.0010 cd/m2, max: 1000 cd/m20 s/ \  j* i% C- l
6 E- G! f# m2 H8 m7 u

5 u# i8 ^% `7 O6 g$ kAudio8 v+ y) h5 y$ ~4 R/ c# ]0 n
ID : 2
0 M& _# ~0 D2 m. r  g9 Y  e/ Y: E! B) yFormat : E-AC-30 H: S* w+ Q2 G6 S: j* {
Format/Info : Enhanced AC-3# A* V. ^' u& p# n: }8 j6 M' @
Commercial name : Dolby Digital Plus7 Y& [4 j3 H3 }
Codec ID : A_EAC3
6 P/ A2 j1 K+ E: F6 z" z+ Z& `& {3 {' [Duration : 1 h 44 min
" h: J! |1 r# k1 ~; x) v' y( `7 h8 U, hBit rate mode : Constant$ Q2 n, ]4 f' u& x9 Q1 u
Bit rate : 256 kb/s% }7 ?4 J. ]) W# ]3 n
Channel(s) : 6 channels! N% j7 K& A- o2 K4 b
Channel layout : L R C LFE Ls Rs
0 N% |4 O( N  \# pSampling rate : 48.0 kHz
( j7 u0 S. j: N5 _Frame rate : 31.250 FPS (1536 SPF)
, k3 H: w. K; Z7 F/ j/ v; wCompression mode : Lossy
- G  _9 l( a" L7 k5 {; v6 HStream size : 192 MiB (2%)! Z1 j% ?7 s' `) ^) f! R4 E
Language : English
6 [: V" `. s4 u. @8 o" y+ T! |Service kind : Complete Main4 P* m! R' V- }  W* h6 ^) \+ b
Default : Yes. w2 {) f: g. b9 _
Forced : No9 @* o3 T# S% S- e
8 ?, o% {( z2 E
! k. C( b& ?) K
Text
2 ]+ L5 \/ R% f- JID : 3- X( d# _; J" c; c# y% C& |+ `
Format : UTF-8
& m  I6 w. u4 F. n3 @; JCodec ID : S_TEXT/UTF8
4 G2 z; _6 c; W1 S, D* y' wCodec ID/Info : UTF-8 Plain Text
6 P- A8 e% n  l5 ]4 i% WDuration : 1 h 41 min* P6 ]7 P" ^( k1 w+ W' D& z( W
Bit rate : 111 b/s/ Z+ u$ L) J* b. H' P: ?
Count of elements : 1619  L0 v1 s/ _1 y7 x
Stream size : 83.0 KiB (0%)0 ?: r. S' F4 o
Title : English (SDH)
" w8 Q7 |6 }" ]  e' K$ E) PLanguage : English
9 {' ]" t: ~/ B8 z# A9 X3 }8 G" GDefault : No
6 I" _) f% s" p) x) O: ]- B7 E7 e3 nForced : No

4 [/ g/ j) w* t# u  x% i
3 @0 L0 K5 u: n) b9 `2 |蓝光高清网提示您  点击下方附件名称  马上开始下载
# v' k) ?" b0 s4 v* F
9 m, l2 f( a5 {, ~. M+ k
) k& j1 V1 |- s* M
福奇4k Fauci.2021.HDR.2160p.WEB.h265-4k电影下载
0 J2 E8 e/ i% @% Y! ]
2 M6 f' J' d) Y/ K* w福奇4k Fauci.2021.HDR.2160p.WEB.h265【12.07 GB】1 Z' a- v; c) j$ q( Q4 E& ]
福奇4k Fauci.2021.HDR.2160p.WEB.h265-KOGi.torrent (大小:15.75 KB) ' j! x2 h4 t4 b+ b$ M# G! @
# ]. x4 y7 P4 Q: o/ r" i1 q
加入蓝光高清网VIP会员  无限制下载本站所有资源---点这里

资源下载、资源播放、字幕使用、无法下载等常见问题---点这里
回复

使用道具 举报

精彩评论3

gdlmxia 发表于 2021-10-9 07:54:16 | 显示全部楼层
太好啦&萬分感謝版主的無私發佈分享%
回复 支持 反对

使用道具 举报

ggang1 发表于 2021-10-9 11:27:02 | 显示全部楼层
感谢你无私奉献
回复 支持 反对

使用道具 举报

羊驼 发表于 2021-10-12 19:38:57 | 显示全部楼层
谢谢楼主分享!
回复 支持 反对

使用道具 举报

您需要登录后才可以回帖 登录 | 立即注册

本版积分规则

烧友之家(蓝光高清网)本站内容部分由用户自主分享和转载自互联网,转载目的在于传递更多信息,并不代表本网赞同其观点和对其真实性负责。 如有侵权、违反国家法律政策行为,请联系我们,我们会第一时间及时清除和处理!
蓝光高清网 综合资讯平台
关注我们
  • 官方微信公众号
  • 扫码下载官方APP

X3.4 Licensed© 2001-2013 蓝光高清网 烧友之家APP |网站地图