游客您好
第三方账号登陆
  • 点击联系客服

    在线时间:9:00-18:00

    客服QQ

    1371333023

    电子邮件

    lanniao@1080pro.net
  • 烧友之家APP

    随时掌握烧友资讯

  • 扫描二维码

    关注微信公众号

推荐阅读
蓝鸟
未知星球 | 未知职业
  • 关注0
  • 粉丝2
  • 帖子95993
精选帖子
开启左侧

蓝色海湾 4k Blue.Bayou.2021.2160p.WEB-DL.x265.10bit.HDR.DDP5.1电影下载【20.75 GB】

[复制链接]
蓝鸟 发表于 2021-10-9 10:41:15 | 显示全部楼层 |阅读模式 打印 上一主题 下一主题
蓝色海湾
上映时间:2021年
类型:剧情 
地区:美国 
导演:全知泰
主演:全知泰 / 艾丽西亚·维坎德 / 马克·奥布莱恩 / 范林丹 / 辛迪妮·科瓦尔斯基
画质标准:4K HDR  封装音轨:Dolby TrueHD 5.1 Dolby Atmos 
豆瓣评分:7.7分
简       介
. X9 P6 Y  d( K# M! y
7 K( o/ R% [9 ~
+ o6 K1 e3 G7 s, e  {& l/ a
  故事讲述了一个典型美国家庭为未来奋斗的感人而普通的故事。
2 m- i5 v% Y+ r  M) G- d6 Y  韩裔美国人Antonio LeBlanc(全知泰 Justin Chon 饰演)幼年时被收养,并在路易斯安那州某个河口小镇长大成人。如今,他与心爱的Katy(艾丽西亚·维坎德 Alicia Vikander 饰演)成家,共同抚养她与前夫生下的 女儿Jessie。当他努力为家人提供最好的生活时,却得知将被这个自己称之为“家”的国家驱逐。挥之不去的过去将他紧紧束缚。

9 }8 z( N! Z0 t3 {7 M1 D0 q* P1 [

. i7 \0 H! R8 b( |' {影片参数; H2 m& S9 \9 U7 N
蓝色港湾/蓝色海湾4k Blue.Bayou.2021.2160p.WEB-DL.x265.10bit.HDR.DDP5.1电影信息7 M& F' Z6 T0 m- o" l
Video
, O4 l* H' P' o9 [7 x; wID : 1
6 q9 I" m* l1 l5 V, v; }Format : HEVC
. B8 b: ~! T# h7 t6 rFormat/Info : High Efficiency Video Coding0 X' s; B7 ]3 g- R
Format profile : Main 10@L5@High
3 M# Z+ Q' G9 @- G4 V* ?3 q& rHDR format : SMPTE ST 2086, HDR10 compatible2 c4 e- \* {5 V/ l( }8 c
Codec ID : V_MPEGH/ISO/HEVC8 x% c  h! k7 e/ I$ J8 e
Duration : 1 h 57 min, \- P! b7 T  m+ q
Bit rate : 24.6 Mb/s
' `7 B4 @, S) a% `% m9 v4 y1 @Width : 3 416 pixels3 P2 K& j$ x" u
Height : 2 070 pixels
/ x8 [" a# X! C, dDisplay aspect ratio : 5:3
& v2 d/ q) x! _! BFrame rate mode : Constant
, W  s% W+ v5 K2 z# U3 J( VFrame rate : 23.976 FPS
) X7 F; T# d; h, gColor space : YUV
; w; ~" D) k! _) a7 ?Chroma subsampling : 4:2:0 (Type 2)
+ l# w4 g# f6 A9 r" i8 [Bit depth : 10 bits
& ]( Z$ W, g$ RBits/(Pixel*Frame) : 0.145
' ^6 h, h5 t9 j# {+ n' lStream size : 20.2 GiB (97%)
+ T3 H4 o+ {" w  Q0 k3 @Default : Yes
: M6 \. B8 l0 T" M1 z: u% D+ K# sForced : No
% I) n/ h8 I% ~7 a* O" xColor range : Limited
& ?, V% a7 B3 M* n) g4 [# lColor primaries : BT.2020
8 L& r4 z. ?5 f* ]% qTransfer characteristics : PQ
4 U' a$ A, H5 S9 JMatrix coefficients : BT.2020 non-constant3 i/ [: V! h9 i9 ^5 A4 a
Mastering display color primaries : Display P3
( q& E) H- W7 H. H0 o. KMastering display luminance : min: 0.0050 cd/m2, max: 1000 cd/m22 z8 Q- r; ~% [  U+ k- t, p
Maximum Content Light Level : 933 cd/m2( j3 T5 a* m: M8 d. Q
Maximum Frame-Average Light Level : 111 cd/m2
# L2 x6 v, f( L& n! J4 o0 V9 b% U( t+ `. y

% E+ ^! \$ o# g* OAudio/ \) D5 e- ?8 U
ID : 2
5 X. |2 r6 y2 D: d& kFormat : E-AC-3+ I1 v& }3 i0 v( L# Y5 }
Format/Info : Enhanced AC-3
& d8 J1 f) m9 [: ]3 X6 c: k/ J9 |Commercial name : Dolby Digital Plus
. G% W4 W* H, {0 y5 cCodec ID : A_EAC3& `* P+ R; D% o( Z
Duration : 1 h 57 min
) |5 j+ V! i& t$ `2 K9 BBit rate mode : Constant
+ z2 \+ l7 ~, ^4 BBit rate : 640 kb/s
6 l4 N- ^  Y& J/ y: H6 ^7 C5 wChannel(s) : 6 channels
' s8 b) F! ]' m4 M! b6 x0 @* M) V1 bChannel layout : L R C LFE Ls Rs; U. w  ~: i3 v. ^( |
Sampling rate : 48.0 kHz/ z3 ]- G7 O, `9 `9 m5 O
Frame rate : 31.250 FPS (1536 SPF)
$ @* M5 O& F$ OCompression mode : Lossy
1 m# }$ r$ w0 O4 L' t: ~Stream size : 538 MiB (3%)7 \9 i$ a, L# l, Q# \& y- B  z
Language : English
, n5 T( D2 U# A! H/ ]! H/ v( z1 QService kind : Complete Main, m" M' c+ V% r8 e. D
Default : Yes
5 z" t) k2 K9 tForced : No6 ?5 Y, @: x5 o' A
8 e7 o3 ?8 _" ]9 e$ d
) w* m  l% I! u1 u0 X9 R: v
Text+ P$ `% K/ w/ {7 s4 M5 K
ID : 3# O5 x, r, [1 G
Format : UTF-8
' D' I8 |, x* {8 k5 s3 SCodec ID : S_TEXT/UTF80 ~- ?" M" [1 i$ c7 `& U
Codec ID/Info : UTF-8 Plain Text
1 w% Y  V9 F! P. KDuration : 1 h 49 min- s' P+ u- ]* k# \- d
Bit rate : 52 b/s
) ], S. e+ K% u  Q( wCount of elements : 1434
9 A0 X: m/ A9 ZStream size : 42.1 KiB (0%)# l4 }" H! L6 ]. A) H
Language : English
7 J' h/ v5 ]. [2 L% @! u, c$ IDefault : Yes
) U2 n- ?5 ]7 _% t1 n" VForced : No
2 l( c$ M5 ~$ }
3 U7 J$ `/ |5 D. `
蓝光高清网提示您  点击下方附件名称  马上开始下载9 ~' X: u& e! t

7 Y2 z0 i3 U  X: L  }

* G' B0 r& V0 c& A& Z- l4 V多版本下载时请注意区分
( r3 P8 W" v! B3 H8 u( y, S" b" D- Y0 E2 h( \# M& r4 Y* k

/ t% t) M: j5 m蓝色港湾/蓝色海湾4k Blue.Bayou.2021.2160p.WEB-DL.x265.10bit.HDR.DDP5.1电影下载! f' J- {* o3 @$ w  j% Q
& {1 Q! [6 I- E  |+ N: R2 ^
蓝色海湾4k Blue.Bayou.2021.2160p.WEB-DL.x265.10bit.HDR.DDP5.1【4k  HDR 20.75GB】( k4 t& S) r0 `7 Z
蓝色海湾4k Blue.Bayou.2021.2160p.WEB-DL.x265.10bit.HDR.DDP5.1-NOGRP.torrent (大小:26.57 KB) 5 H! R) n0 a% P
1 |: A+ G1 X$ a6 d
蓝色海湾4k Blue.Bayou.2021.2160p.WEB-DL.x265.10bit.SDR.DDP5.1【4k  SDR 17.43GB】) j2 D& ^( l1 u

% N. `+ [5 E) q, c5 Y! Q 蓝色海湾4k Blue.Bayou.2021.2160p.WEB-DL.x265.10bit.SDR.DDP5.1-NOGRP.torrent (大小:22.42 KB)
) X( p5 a+ |+ @* G; t
- H4 K- r- J  K: b
加入蓝光高清网VIP会员  无限制下载本站所有资源---点这里

资源下载、资源播放、字幕使用、无法下载等常见问题---点这里
回复

使用道具 举报

您需要登录后才可以回帖 登录 | 立即注册

本版积分规则

烧友之家(蓝光高清网)本站内容部分由用户自主分享和转载自互联网,转载目的在于传递更多信息,并不代表本网赞同其观点和对其真实性负责。 如有侵权、违反国家法律政策行为,请联系我们,我们会第一时间及时清除和处理!
蓝光高清网 综合资讯平台
关注我们
  • 官方微信公众号
  • 扫码下载官方APP

X3.4 Licensed© 2001-2013 蓝光高清网 烧友之家APP |网站地图