游客您好
第三方账号登陆
  • 点击联系客服

    在线时间:9:00-18:00

    客服QQ

    1371333023

    电子邮件

    lanniao@1080pro.net
  • 烧友之家APP

    随时掌握烧友资讯

  • 扫描二维码

    关注微信公众号

推荐阅读
蓝鸟
未知星球 | 未知职业
  • 关注0
  • 粉丝2
  • 帖子95993
精选帖子
开启左侧

人母诅咒 4k Madres.2021.2160p.AMZN.WEB-DL.x265.10bit.HDR10Plus.DDP5.1-4k电影下载【人母诅咒4k Madres.2021.2160p.AMZN.WEB-DL.x265.10bit.HDR10Plus.DDP5.1-4k电影】

[复制链接]
蓝鸟 发表于 2021-10-9 10:45:00 | 显示全部楼层 |阅读模式 打印 上一主题 下一主题
人母诅咒
上映时间:2021年
类型:恐怖 
地区:美国 
导演:Ryan Zaragoza
主演:艾尔皮迪娅·卡里洛 / 特诺切·韦尔塔 / 克里·卡希尔 / 贝茜·波雷戈 / Harlon Miller
画质标准:4K HDR  封装音轨:Dolby TrueHD 5.1 Dolby Atmos 
豆瓣评分:无评分
简       介
+ i" ?% l) h# n9 x, `! V6 r
) R' d0 ^' `9 [# M/ R/ i

) }; G( f- ^3 ]7 x  1970 年代,一对期待第一个孩子的墨西哥裔美国夫妇搬迁到一个移民农业社区。当妻子开始出现奇怪的症状和可怕的幻象时,她试图确定这是否与传说中的诅咒或更邪恶的东西有关。; W5 z" T# y0 [1 g2 j7 \' \

. o6 r  @( X5 c
; n' l* H' j- k0 g1 T7 R6 E) U
影片参数/ F7 ^# K3 `, y, d" {
孕母/人母诅咒4k Madres.2021.2160p.AMZN.WEB-DL.x265.10bit.HDR10Plus.DDP5.1-4k电影信息
1 ?' z) ~+ ?# A% m8 D# YVideo
  O" ^2 {7 w* p' M- o0 |3 H+ tID : 1# l$ v+ \6 U1 W& {, c: U
Format : HEVC- L, K4 v! _7 G4 W3 q, q& `
Format/Info : High Efficiency Video Coding
2 _8 j- K, z0 Y/ V; PFormat profile : Main 10@L5@Main, y5 L% e  V% @6 }4 m$ p7 w
HDR format : SMPTE ST 2094 App 4, Version 1, HDR10+ Profile B compatible4 g& \7 [! T! N, V* Z0 E; ^( p
Codec ID : V_MPEGH/ISO/HEVC
3 c' h* J3 O! p" v. u% [; ]Duration : 1 h 23 min
% Z3 H! s( y3 ?: |2 b0 X" X3 SBit rate : 14.6 Mb/s
8 r" K' q- ]; A8 n( o% b+ [Width : 3 840 pixels
# O4 C( y' _! DHeight : 1 600 pixels. t  a% Y( L: o3 p/ K
Display aspect ratio : 2.40:1! y" I, o. G0 I0 v1 R6 p0 s0 x
Frame rate mode : Constant
0 v  Y1 o: z" P; x0 B. }Frame rate : 23.976 (24000/1001) FPS
# l6 }  N; h  r, fColor space : YUV6 H9 b% B) c2 `8 j( |* v4 v6 ~( K
Chroma subsampling : 4:2:01 q! \$ X* i" w' z. g  W
Bit depth : 10 bits6 O+ v7 r' d* u3 r
Bits/(Pixel*Frame) : 0.099% w* F. L8 U; N" J$ i" P
Stream size : 8.55 GiB (96%)8 m( ]& w$ C$ |3 C( {5 q5 f
Default : Yes
# X& }! z! y3 J- Y, f6 B& m- O* |Forced : No
% E* Q3 ^: {( n; {5 [  [Color range : Limited! b. c2 }9 r" Z8 m! ^$ K, A
Color primaries : BT.2020# @6 N( o1 d& X# S
Transfer characteristics : PQ: {* G" y  {' F9 H
Matrix coefficients : BT.2020 non-constant
4 a) f0 M& x- `Mastering display color primaries : Display P35 Q+ }8 P* ~. E7 U8 }. X
Mastering display luminance : min: 0.0001 cd/m2, max: 1000 cd/m2
0 M; K! r: s3 b2 M1 u3 t8 SMaximum Content Light Level : 382 cd/m2- ~, s: d( s6 U- p
Maximum Frame-Average Light Level : 52 cd/m2
: B( y  q( }% j$ L& c: D7 O) ?$ M3 {& B. Z% |4 I  I- i) g

& o; r( k5 P% l, b1 EAudio3 h1 C$ D$ U  I& D
ID : 2
5 }# o- Z. n( m" FFormat : E-AC-38 w( j- C8 s0 M
Format/Info : Enhanced AC-3& W1 S* H( s2 B' o
Commercial name : Dolby Digital Plus- y) K6 r# \& o# q$ c6 t  y' Z
Codec ID : A_EAC3' N/ d! [) X, T' ~! Y
Duration : 1 h 23 min1 R/ _' l; j% I. w
Bit rate mode : Constant, b6 l1 C6 \& d; E
Bit rate : 640 kb/s' K9 ?( n% u/ B, g% ?
Channel(s) : 6 channels
- t4 R. _) }% f9 s: z; e) u* @Channel layout : L R C LFE Ls Rs
' p2 G& o8 z7 JSampling rate : 48.0 kHz- q8 H9 U& g" G' k
Frame rate : 31.250 FPS (1536 SPF)" J; Y3 S4 R: f0 v6 j( b
Compression mode : Lossy
5 o+ X$ V9 v% D; Z+ f; PStream size : 383 MiB (4%)1 n2 X# X$ E2 O
Title : English  g- T* i4 Q0 L5 `! x% U! ]- Z) }6 d
Language : English+ J% x% w7 J  A& @9 z) v
Service kind : Complete Main
6 B' i' H- Z" y5 pDefault : No
* u( Q5 k+ v' I/ x5 CForced : No
, h) I; z/ L5 h5 {" ~0 q- S9 B2 W% M* _; {& U3 ~+ z0 h4 x
* Z( ]2 x) v( Q! c: k& X" e
Text #1
+ ]3 P& r5 z" G: Z8 \7 sID : 3- n/ A# Z$ D7 Z+ v, W2 m  y
Format : UTF-8
7 M8 J: B4 H; f5 ]4 `Codec ID : S_TEXT/UTF8% P1 W' @# `1 b6 v& U8 W
Codec ID/Info : UTF-8 Plain Text
' g+ `, \8 Y, B9 I6 m2 _Duration : 1 h 23 min
$ Q, ^& k) G# S2 d+ a5 IBit rate : 67 b/s
' _4 S& h4 e& K4 h* \Count of elements : 743+ G. s. t  M. W% O- M& V6 ]" y- p
Stream size : 41.1 KiB (0%)6 H( |, @/ k' K  Y
Title : Arabic: v2 L3 Q& C& N; Y
Language : Arabic
" ?0 |7 K& x! K$ jDefault : No6 @8 H  X9 a3 i1 l0 J- U( q
Forced : No* w% L: @& o; y

- p  |2 ~6 H( _# O+ v' L, p

( p) a/ X+ @2 E. U& l6 g3 HText #2
$ S0 P, t* J6 Q9 TID : 4
6 Z  X; \% D7 t% U. E4 a: W. V' FFormat : UTF-84 _/ _2 w3 ]: n4 B
Codec ID : S_TEXT/UTF8% P3 {" z* g; E. z4 I2 ?3 R
Codec ID/Info : UTF-8 Plain Text
* O9 _2 ]8 {6 r1 F  ZDuration : 1 h 23 min# y4 x8 u7 J1 \% t, w# l
Bit rate : 35 b/s
' G6 L0 @9 s/ c! `Count of elements : 741& }+ }- b6 n- H( c
Stream size : 21.5 KiB (0%)' S& f; _- c' e' g8 J. V% C& A7 W
Title : Chinese (Simplified)
5 r9 d* T, W+ L2 gLanguage : Chinese
! w& B; Z0 r' ODefault : No3 Y% x, |! [) X
Forced : No
! @! }  ]8 c# n# h8 R5 Q$ M: o8 {7 i, p$ Q. [0 \# H, x
% Z. j+ W1 Z: v  e- V5 y; {; x" H
Text #3
8 s3 W/ D6 Z& CID : 5
( i. `' K, ~/ U- eFormat : UTF-86 O) I) h+ d1 Z2 o$ y% l  e! Q5 ?
Codec ID : S_TEXT/UTF8
# S# B! b5 t( DCodec ID/Info : UTF-8 Plain Text# H( [" ]) [; u- g/ v
Duration : 1 h 23 min' d# G4 v' J- e  L- W: P/ r) f3 S7 w
Bit rate : 30 b/s
% Z" _* `" D. g' x7 pCount of elements : 741
2 g+ ^6 `, N4 f( j" qStream size : 18.8 KiB (0%)2 }/ }' I6 ]* C+ r( h1 z
Title : Chinese (Traditional)
, y& x8 I3 V# W2 \! {Language : Chinese( V. _) j' S9 Q. z, e
Default : No
, g$ j9 E) x2 q$ U" _& S. j4 g5 x  GForced : No6 k7 R7 s: j; U+ B9 T+ @

) H- _7 k% h  l
8 a% A, h% [6 ?- E( P( V, ?" P6 d' }
Text #4
  H7 W) ?+ m7 _7 T0 W7 UID : 6$ U, G- x/ Q. X1 C- F' c
Format : UTF-8. Y2 p. O7 T" g9 u: o0 Z7 \
Codec ID : S_TEXT/UTF8
) b' T9 O2 T  T/ f5 t+ \+ `- GCodec ID/Info : UTF-8 Plain Text
( {' ?, Z5 a6 O0 c5 Q/ p6 O: y% BDuration : 1 h 23 min9 p8 U4 ~0 ]% H$ H" R: \
Bit rate : 37 b/s* U5 h+ _: }7 ~4 c4 x. ]6 v
Count of elements : 7362 d2 a5 [) {, X8 p6 |. f% @1 U+ D" Z0 C
Stream size : 23.1 KiB (0%)' t; K, m5 F3 T7 }8 T2 P2 z1 j. `
Title : Czech) u0 c7 b/ Z% Q4 k% H: E
Language : Czech+ c1 Q% j" @: D2 J8 S' x
Default : No0 V2 c2 @7 d8 P
Forced : No
# _6 L9 R) j, {! [
- I9 n/ q: `8 E5 g; D/ J
: e$ L. ~' D0 l) Y
Text #5% N" k7 y- ~& N  u/ X" ~
ID : 7
* q; m3 d  G9 o. P% X: FFormat : UTF-81 Q5 P2 O1 X6 r
Codec ID : S_TEXT/UTF8
' W) z) k* S+ u+ }" X" \+ ]Codec ID/Info : UTF-8 Plain Text( U# S- ]& |# C7 s9 W  _
Duration : 1 h 23 min# k9 B0 N8 f0 v* U5 [& ~
Bit rate : 37 b/s1 ], d* [& j" S! @- r
Count of elements : 731- }1 n1 p7 U) s: k8 T! p# O8 o
Stream size : 22.5 KiB (0%)7 w" k: b4 }3 m1 o4 D& Y
Title : Danish
: l9 q; t! y2 v3 LLanguage : Danish7 ~! }. c# \) l
Default : No4 Y( ]: g: @* }
Forced : No3 ^$ V+ v: M3 W$ g+ m
( p' I/ ]/ x% y  {: L: |5 p* r5 j

  Y/ x( [& s( o4 ]4 N/ u5 YText #67 k3 O, C' y8 I/ \
ID : 87 I" c' W$ @0 t8 y8 W6 P/ a0 v7 r
Format : UTF-8, d. ?2 k' X) I: M' J- f
Codec ID : S_TEXT/UTF8
& u) E$ N: c3 ]7 WCodec ID/Info : UTF-8 Plain Text
" Y% {- ^7 Z9 w* K& D. QDuration : 1 h 23 min) z1 Q1 ]) _1 U2 q+ M6 [7 H' `- p
Bit rate : 34 b/s  F4 b; Q& R8 n/ h! W+ r6 C; }
Count of elements : 724
+ D6 B9 U! f: H' l4 ZStream size : 21.1 KiB (0%)
% q1 w6 |' x3 n2 w, B8 U3 Z3 ATitle : Dutch1 U# U& m7 i% @( [& E5 |
Language : Dutch  J: s. D/ ^  B1 g
Default : No
6 a& U4 v- c7 k/ J0 SForced : No
1 p% s" R3 x/ K2 P' p8 Y1 [2 T, u6 l) [( e

1 |9 p  N" Z" g/ c" [Text #7
* L+ F7 M, o0 G% w+ v1 o% S5 BID : 9
1 P0 K% H. }1 V0 t: E9 {Format : UTF-8! p5 @$ @5 l! N0 c
Codec ID : S_TEXT/UTF87 E6 g6 y2 q% f$ i: O
Codec ID/Info : UTF-8 Plain Text
3 I* D8 R+ y, z. HDuration : 1 h 11 min+ P8 ^, v) }, g: h6 R" h
Bit rate : 3 b/s% D5 \% B# y) d" p$ T" x
Count of elements : 94+ Z! O" X9 V, }: h4 V0 ^) R# B; W
Stream size : 1.86 KiB (0%)9 |2 U- E$ j3 s, G# k" |
Title : English [Forced]
; P2 R1 }* h  m) |# }4 ^Language : English3 _/ A3 Z; \  g
Default : No
$ K7 u7 t4 V* G5 `2 U& ~Forced : Yes
2 u- |# _9 `; C9 b/ ^( V7 J+ C' m9 e
' H2 j' y9 P8 q9 P! t
Text #8  I5 O  L2 o$ T
ID : 10
% F/ N+ F: Z" ]Format : UTF-8
6 k- [$ s' {- q/ v3 T/ D8 MCodec ID : S_TEXT/UTF8/ _0 z" |! O" K# o/ @9 p% G
Codec ID/Info : UTF-8 Plain Text
4 c6 \1 X* r/ \1 W: aDuration : 1 h 23 min; o8 ~4 z! Z9 e* k0 r, j
Bit rate : 45 b/s
; ?: o/ i& O3 T9 F% \Count of elements : 1154! R$ l( |( m' e& _4 ^" J8 S
Stream size : 27.6 KiB (0%)
* p7 u5 Y0 O  _3 |7 O+ |1 ZTitle : English [SDH], E- V3 [* p9 F# }
Language : English2 F: c1 m; b, X6 F" A) b( L1 v
Default : No
, ?# T; ^5 S: p2 P! D& v! bForced : No
. U  B/ v0 S, X* ^
1 Q. @) q8 d8 \  i( _

0 V/ g% a1 B" ^6 P9 T& j' oText #9
: E5 x" g: o" e* Z: B. DID : 111 b5 Y$ w! w# v2 q! T8 b
Format : UTF-8
; n1 c3 V. A6 M9 M9 e+ V2 vCodec ID : S_TEXT/UTF8
9 q& @% l; C3 m# |% z% n  z6 CCodec ID/Info : UTF-8 Plain Text
! {+ o; A  }/ k& ~6 _Duration : 1 h 21 min
; {5 W: t" w4 ?7 `) Y/ UBit rate : 37 b/s0 a7 A3 Q5 M* ?! B$ t: J  k( L3 G
Count of elements : 861
; n% L  n- [5 yStream size : 22.1 KiB (0%)  @  s! v) |4 F3 v$ E: Q% ?
Title : English, }# q* w; I6 d: C) _
Language : English$ M+ J! Y5 H4 Z' t) \. s
Default : No
' ]( ^% V6 `) X! S) r1 J, U6 mForced : No
) @7 v5 `. @, |5 \6 d- b  z" |; ?
4 T4 `& b% \3 h3 Y5 d  [8 a
% V* W* G1 S* C
Text #105 l) F' Z3 ]5 o7 M7 C# X
ID : 12
% p3 K, s) x2 F6 jFormat : UTF-80 @" _8 ~/ ^1 r7 [8 t0 D
Codec ID : S_TEXT/UTF81 g4 y: i+ q- y# c  i
Codec ID/Info : UTF-8 Plain Text! l) ]0 P8 U( m: Q9 u; ?# m, R4 W
Duration : 1 h 23 min' ^* N9 A$ A; u2 o
Bit rate : 39 b/s+ l  g/ t1 g0 B( o# w: K) Q
Count of elements : 716. L4 @  J+ \) Y( S8 `* _+ W" c
Stream size : 24.0 KiB (0%)
! L6 ]7 b" L2 l1 Y+ k, FTitle : Filipino$ `: ?* d/ b* `7 k* _: _! E9 l
Language : fil
7 Q1 o5 e& v! V+ k$ l, sDefault : No
3 W# A; P0 M1 N" ?" FForced : No% I% R0 g6 l% t
0 q. \- `! K- v' }" Z
! i! o3 L4 j9 X) b4 E& [+ }. T* [
Text #116 K2 V+ g0 Z: A; x( N3 k2 X) Y# A
ID : 13
3 ]+ u' {, a( O4 G/ P6 h* l  cFormat : UTF-8
, f6 [' I5 C9 [* Q* uCodec ID : S_TEXT/UTF8
, r' D2 N1 h2 v3 s+ X( Y5 I( B1 p' N& iCodec ID/Info : UTF-8 Plain Text
! Y3 ?8 u5 w& v. G$ g+ a4 ]: bDuration : 1 h 23 min
! l' I9 V" V' s7 g& V% Z" f! ABit rate : 34 b/s: M9 ]( t" X- c
Count of elements : 731
5 R6 X' B0 ^6 sStream size : 20.7 KiB (0%)
; v' l5 k+ R1 P9 ?Title : Finnish$ _. y, M7 E. i
Language : Finnish# o0 G" f5 C$ ~5 S, }' h: o
Default : No
* A6 w% K+ [* j: m3 s/ i0 sForced : No
( z6 a/ e! e& K- q6 A7 E
& G% l, ?( X, ?# C! J

+ O% W  a. ]0 |$ o2 jText #12
) _0 [# `; k6 H$ _$ L1 z9 VID : 14; B+ Z6 x* q' _$ J1 Z1 k$ r
Format : UTF-8
* \) L3 L) k$ ?- k# o; B* KCodec ID : S_TEXT/UTF8' a+ Z7 G& ]! Y. B
Codec ID/Info : UTF-8 Plain Text8 Q# `5 W1 z6 O2 h
Duration : 1 h 23 min# a  [% j5 D# ~3 T. ~, S+ Z
Bit rate : 35 b/s5 N3 @9 [2 o' j, n' a0 a7 {
Count of elements : 734
* H( ^/ |' f( ?& b- e, G# RStream size : 21.4 KiB (0%)
) x! h8 o: W4 a1 Q0 S+ k+ \" r# B, M9 YTitle : French& B& ^7 t7 t8 ~$ Z( R
Language : French
3 G' O/ X% y5 Z9 w' CDefault : No
0 h# j) |: I" Z$ \Forced : No2 i9 G6 p0 v. B) P- b( v

1 |4 \% E& i1 L, ?. Z
6 N2 J3 `4 h! @) s
Text #13
+ V# P4 Q: }- z. \7 r- S8 Z  EID : 15
: a& H- X4 |8 Q3 VFormat : UTF-8
/ E- _, P$ p, q1 H! g/ NCodec ID : S_TEXT/UTF8
: O  @/ q1 D. \1 HCodec ID/Info : UTF-8 Plain Text1 U; F' ^" y3 e6 I: c
Duration : 1 h 23 min
, \% \) F. o$ k) I; sBit rate : 37 b/s
3 Q  w6 y8 {4 S% X5 C! b8 TCount of elements : 724. {$ G6 ]. s: \  i4 ]1 M2 C+ g9 W( A5 ]* a
Stream size : 22.8 KiB (0%)5 u" O$ c: k6 @  y- W
Title : German7 ^; S4 |6 M" ^% K+ x" [) X
Language : German" ~8 u( ]$ M. P; c( a# f3 B6 L  u
Default : No" ], f/ Q& `* U+ j1 n
Forced : No- D& y) k* F' G; C

+ S& a  H5 h, l3 Z

& \, C5 E' b+ a6 ^* {# HText #14$ {& Y/ z; \3 l( \  l1 z3 S
ID : 164 Q. Q) Y: k, V' a0 o
Format : UTF-8
$ A, L. C& U: U  W* xCodec ID : S_TEXT/UTF8
& \4 h7 Y6 @* l) v% d) ]Codec ID/Info : UTF-8 Plain Text( m/ ~' q4 O3 u* [4 x9 H) I
Duration : 1 h 23 min
  R0 f: k3 O3 L4 e9 @0 O* vBit rate : 65 b/s
, K# ~+ m; |  H) hCount of elements : 737  m+ m$ o) @1 ]; Y( ~
Stream size : 39.8 KiB (0%)9 E0 B" H( @" c3 |
Title : Hebrew7 E- F$ z9 ?  O+ F
Language : Hebrew: P: s6 ^( U4 N6 u
Default : No" e9 P$ G' {0 I5 b1 q* W- a4 \
Forced : No
( p& ]7 R" `4 ~& e5 v# Q4 U! t: s& Q! L, d( S, U

% X% x) _6 v, J8 S3 s4 `Text #15
( S# M, E* J1 e7 s2 FID : 17
5 ^- V5 ^4 m  U! L6 Y, [: s. {Format : UTF-8
3 v* D% N$ u6 G4 M& M/ P2 p, r! cCodec ID : S_TEXT/UTF8
! J! i$ ]2 p! eCodec ID/Info : UTF-8 Plain Text
0 p6 C2 t/ X) ~8 t- J! N; ?$ L" wDuration : 1 h 23 min
5 X- r: l0 _/ x5 n- {8 T+ C/ M3 wBit rate : 90 b/s3 B0 Y  U& T/ x: P3 d) w: J
Count of elements : 7415 n; i$ W1 A% X1 }# m$ D8 L
Stream size : 54.9 KiB (0%)
  B  f0 Z! m: x, B+ G% g% ?Title : Hindi& i- h/ E% b  i1 C
Language : Hindi* q8 N: X, Z0 ^) `7 d& {- r3 @
Default : No/ [) H8 P2 i/ i/ |: c( w2 Z- e1 F
Forced : No$ N6 ~7 l- W! ?! f  }
8 A  F+ ~) V6 r, B9 Q9 Z  {5 H* s

# Z$ r( y5 z7 ?: L2 i, V5 t! mText #16
  I+ n- i& y/ X, o' V: w9 NID : 18( y6 B7 ?4 G$ V" W2 Z$ d* u
Format : UTF-8
, B+ Z  g2 O2 tCodec ID : S_TEXT/UTF8
3 u) u7 d3 e7 a; _Codec ID/Info : UTF-8 Plain Text
9 b5 b$ t1 u% Y" TDuration : 1 h 23 min. M3 W; z8 n- `& a2 N
Bit rate : 37 b/s
. Q; t+ [8 E$ m9 UCount of elements : 735$ F$ G3 o7 L, _
Stream size : 23.1 KiB (0%)
! K6 N* r; X3 d% k6 C3 MTitle : Hungarian7 R+ R; x7 j. L
Language : Hungarian/ F& A1 g$ P( ?/ E
Default : No
, j1 |; Z- `" J. }8 f* jForced : No
' |" `& K( Y. b; A5 r
" c. d( H0 n; e

6 Z* M) |& X3 B$ @+ e/ h2 Q6 K9 w$ KText #177 _4 A2 G# i8 r5 o) ?0 M8 C$ d) Y
ID : 19- D- b2 s6 f. C0 D
Format : UTF-8! j. ?) ~8 w5 _6 R
Codec ID : S_TEXT/UTF8
5 p1 a! v  B  K2 k$ h+ NCodec ID/Info : UTF-8 Plain Text  l' S) R( v# F: K
Duration : 1 h 23 min
. K* t$ m9 B  N1 ABit rate : 35 b/s
1 A% L" |9 L+ m" T' wCount of elements : 735
9 b. G1 F8 \% ^( E2 J9 TStream size : 21.5 KiB (0%)
2 S1 ?' \# y& a8 V% ]2 iTitle : Indonesian
' x5 J1 e1 i1 J6 K1 ELanguage : Indonesian
6 @( }! Q7 K, S' cDefault : No
( `0 X5 i$ c  U/ q5 ^Forced : No; \/ ?' F; H  [

' O5 O9 Y: P& V" r, ^& S
8 Y. S  G. l: d; H: w, ^2 Y
Text #18
7 U* @1 y8 `0 J. [6 YID : 209 j, q6 i' ~) R8 W' s
Format : UTF-8. ~2 M8 U0 R+ o. f. a
Codec ID : S_TEXT/UTF8: A! }9 ^  x2 l  B4 `$ p: L+ b3 T
Codec ID/Info : UTF-8 Plain Text( d8 Y, y; x; J: c. Q) \
Duration : 1 h 23 min8 [9 ^2 H) o9 o6 G% x9 X6 p+ R
Bit rate : 36 b/s
( m# p  i" k; m) }Count of elements : 737
3 F9 D8 d: r( l; VStream size : 22.1 KiB (0%), g- {/ g+ O2 p7 x
Title : Italian% K/ _6 N+ Y2 [6 o
Language : Italian
4 O8 R% T8 U* K! x, bDefault : No
5 F7 b! ^) a9 O: U- ^" }' NForced : No
4 [/ G6 j8 c: o1 M' V0 `' d$ p* |6 x# P, L

! ~0 P# m. O) GText #195 R9 m  o  T$ P: _( V
ID : 21
' d3 j3 I/ U9 X9 E" NFormat : UTF-8, U0 d4 W1 {# W
Codec ID : S_TEXT/UTF8
. j( D- G/ g2 t2 |Codec ID/Info : UTF-8 Plain Text
; ]! v! Q7 V6 H1 X4 wDuration : 1 h 23 min' h1 c. t2 z+ l; N+ {2 C
Bit rate : 31 b/s
4 p! K1 ]: V" ~- L  O; T- |6 k& E  fCount of elements : 722
( d  k' B0 v+ w8 zStream size : 19.0 KiB (0%)
+ l) E" |* u  {; _5 K' I: ^3 lTitle : Japanese
5 s( N' i4 b4 K% X* i  QLanguage : Japanese
+ f: p: d- S3 s& F/ S( |Default : No$ Y+ k& Y2 L' c$ e
Forced : No- c' e( o# J  H" P
0 x% M6 v9 P. B! B+ D7 Q+ ?- p

  O1 K' B4 {9 ~5 |' e6 G. n; [Text #20
  R: ?1 {/ }# R0 M! G1 uID : 229 ]3 z( p5 R1 C! p( J4 G
Format : UTF-83 M3 N5 A/ A# b, ]4 `7 \
Codec ID : S_TEXT/UTF8" R) }9 _$ s4 u( p
Codec ID/Info : UTF-8 Plain Text
, M& e) C: h7 Y  s2 mDuration : 1 h 23 min4 A  I- Z" @7 M* g  C6 {
Bit rate : 41 b/s% G7 P# b" d( `( N9 h
Count of elements : 739- r6 [# N+ h! j6 m! C2 {) A5 P' h! t
Stream size : 25.1 KiB (0%)
" f8 K9 I& {0 \1 \Title : Korean
" O' k7 Y9 d' k% K5 O) l" OLanguage : Korean7 n0 n: k$ r" Z7 K0 X9 r6 |  C
Default : No
. `: o2 |3 D" m' J7 j4 @2 JForced : No1 C$ J# A7 l4 E) j

. v7 T* _/ L$ q, H3 d8 q5 O

5 U- p" f! D, }7 \Text #21$ Y6 O6 @: Z% P' s/ i
ID : 23! K" |7 ~" s6 Y! |" t1 P
Format : UTF-8& \3 F5 P& ^4 w9 S: K5 g4 b7 O
Codec ID : S_TEXT/UTF8
/ y6 @3 c+ t6 s. R$ v  jCodec ID/Info : UTF-8 Plain Text
. }. _7 x, x" o% L; ?/ `. g8 qDuration : 1 h 23 min
3 D) @2 r: K- j, ~* n/ VBit rate : 36 b/s# c3 g! j" n  O- T$ v
Count of elements : 733
1 H0 N+ w: B, w( r. W* AStream size : 22.4 KiB (0%): }' E* _2 M' V4 `
Title : Malay9 t8 O+ @  c4 N# A4 q/ T4 E
Language : Malay  ~# C. Z& j! |1 t2 Q* a7 ^
Default : No1 M+ Z4 c1 u7 S2 R4 W! P
Forced : No9 c  j3 ~; z6 b: i- _/ m8 g
7 h: l/ {, T0 g# \7 L
. v# d4 |$ R7 I
Text #22
8 l' w6 j4 e& F$ }ID : 245 ~' K" ~9 W) J1 K
Format : UTF-8) R0 S" O9 D2 A& ?2 g/ I8 q
Codec ID : S_TEXT/UTF8  b  l: H# m( z+ M# N* j8 R
Codec ID/Info : UTF-8 Plain Text
$ _4 t3 l* J; g0 L4 D3 B4 V# ]Duration : 1 h 23 min7 z. H8 _+ |9 j
Bit rate : 35 b/s+ @9 D* e0 [# y! j: Q
Count of elements : 7330 k0 x, O8 C$ r& {) ?4 g
Stream size : 21.8 KiB (0%)
8 [! C  ^; a  ]* DTitle : Norwegian (Bokmål)
( O, c% N) R9 ^( K9 B& i8 L' }Language : Norwegian Bokmal
6 o6 k, b" u7 s7 |1 `Default : No" a$ p5 @# @: G& P
Forced : No
' f7 `1 V* u; D# Y5 x( U( d/ F$ E9 T2 V5 L3 y: j8 X0 r1 V
( o$ t$ N8 y9 w2 K! X
Text #23
+ W4 J9 w% F5 e8 P! PID : 259 ]+ a2 ~6 B- E$ d1 s' ?
Format : UTF-8
* _* n% D+ Q2 F$ t/ n0 e. S* k/ ECodec ID : S_TEXT/UTF81 F- I6 t# h0 S( }
Codec ID/Info : UTF-8 Plain Text
0 k- y! F$ w) a5 L  q- NDuration : 1 h 23 min
1 o# B3 \4 S+ T! ABit rate : 30 b/s
8 W. @9 ~8 {3 ?0 Q8 D! _* R$ N& VCount of elements : 726* g: K$ p% L6 S; m
Stream size : 18.6 KiB (0%)
" L. ^3 j/ X- w# M1 LTitle : Polish1 C' a- u% Y+ N1 @( p* C* U
Language : Polish, C5 p# K0 o7 v& P! i
Default : No8 z, D5 i" l4 b  Z- W
Forced : No& y" f8 D9 T" W% K8 B
. D8 X( l; p  C# N$ m
/ E8 w' V7 B' W+ P2 U  f  R
Text #24+ c# A7 Q' {- m! `
ID : 26
+ A6 B6 k* r) l9 O/ [  U- HFormat : UTF-8
! B* e; R0 ^" s1 u1 c' w+ MCodec ID : S_TEXT/UTF8
. d+ o8 e2 M: ]8 H+ nCodec ID/Info : UTF-8 Plain Text( b& k8 f9 D7 n) J" [1 k0 A# V. R) @
Duration : 1 h 23 min
& m6 I+ ~: p1 W- N4 I  Q; Y2 eBit rate : 35 b/s9 Y/ ~6 {+ X6 K# v4 m2 b) w
Count of elements : 736/ E4 i* l' z) N* S0 ?7 w5 ^
Stream size : 21.3 KiB (0%)6 M, h* Q; o1 Y$ k) D3 X
Title : Brazilian Portuguese
! Z/ ~* }5 i$ v4 j0 H& jLanguage : Portuguese1 Q, l/ D3 w' f7 ]! m& h; d* B* F
Default : No
# C% b6 w! q) [8 e4 m0 k( EForced : No3 `2 J5 T: w: R0 m2 V5 p

. h, p+ n- z4 x+ p& d# h
) m" p6 q  E9 ?3 O# }
Text #25
% J; v% m$ F- R, p8 @/ VID : 279 ~3 @4 J/ e* b' A6 S' u. k
Format : UTF-80 g$ p% A. J& u$ k+ n. C
Codec ID : S_TEXT/UTF8' k2 Z6 _5 `) l* t+ b1 Z6 {1 B
Codec ID/Info : UTF-8 Plain Text0 ~: c' ], E* b& w$ u) ?
Duration : 1 h 23 min1 k5 v* x4 e" s  U' V: f4 P/ q
Bit rate : 35 b/s
) }0 O1 S3 W1 _4 N  f- b3 WCount of elements : 7335 e' o4 q) N/ i8 A; }
Stream size : 21.6 KiB (0%)1 \. ?! t& C4 T5 p
Title : Portuguese
* h' A2 ~( j; v% e7 sLanguage : Portuguese# v% [% \& a* J: a/ C7 k
Default : No
3 h7 `+ P" D7 Q4 q5 k) m' x0 kForced : No
$ o+ n# H+ ^( O! B' u! d1 T) p  W7 p0 j! F" z4 Q1 K
. x0 L: s. o7 h* `9 p7 p3 {+ F4 R( \
Text #26: ^- f' X& M8 Y3 V" ^2 W
ID : 28
# [+ s1 U% H3 ~2 I) b- p; M1 nFormat : UTF-8
$ j% H* O! X$ d. o! u" h  g' z2 OCodec ID : S_TEXT/UTF8- }) U" b/ L2 I/ i3 h, N
Codec ID/Info : UTF-8 Plain Text
! a/ h7 V( V1 M4 S" ZDuration : 1 h 23 min6 _" m" [0 ~, s0 I3 q$ C) S
Bit rate : 38 b/s
4 ~+ C5 s+ i7 ~- U5 KCount of elements : 736: C* V! K( h) v4 w3 d7 N  L4 |
Stream size : 23.4 KiB (0%)2 e4 o% b- d- G3 B0 m
Title : Romanian- e' H5 Y' T+ Q! C( q3 `( Y$ n& \
Language : Romanian: D% m, V9 w6 }6 h/ i6 B
Default : No
7 `' @9 S, B, ^4 z* [. pForced : No* w: p: [$ K  s# a% Q
+ Q; |3 t. l1 r
  J: X5 E  ]  e1 I4 v  h3 D
Text #27
( ~7 Q: o2 e2 y6 ~2 R& I2 K4 {ID : 29
) e: T. h  M' P6 h5 S6 {8 aFormat : UTF-8
8 K' `& |, ~6 M& [/ ~+ `/ BCodec ID : S_TEXT/UTF8
( W! U( V# i' I$ gCodec ID/Info : UTF-8 Plain Text* n4 n/ r% ~0 V4 e: G4 ~! j
Duration : 1 h 23 min
2 \5 L+ J) ?- [, M- iBit rate : 59 b/s
* }6 t: O  l1 l7 e6 |9 uCount of elements : 7399 ~0 B! u) \8 a. o- D
Stream size : 36.3 KiB (0%)- c: k5 g' Y  b0 `) x. ~
Title : Russian
9 [# c5 D2 @, w8 _! DLanguage : Russian
( K5 }: g5 ?9 U/ l2 D7 X6 ?) VDefault : No, z0 [& t: c" [) Z
Forced : No3 c9 M' _/ X: ?/ p8 [

$ n( _) }5 G6 `) t3 G* T: @) n3 {
; S- c+ }0 M! K" n4 L" H  q3 W
Text #28( V6 S# V, V$ L8 W- o8 [
ID : 30; G. ], s( @% D" e7 r2 |, a/ {
Format : UTF-8) D: t  W# F/ {; {5 D
Codec ID : S_TEXT/UTF8% K* a& r6 h) I$ {+ E
Codec ID/Info : UTF-8 Plain Text
+ \* Y( ], r) XDuration : 1 h 23 min
- o7 c& R" j$ v/ o' i  jBit rate : 33 b/s
' E+ x2 t3 h" Z$ I, p8 yCount of elements : 658! B# S: b' x+ }0 B
Stream size : 20.7 KiB (0%)# g9 ]7 s& y* t0 R6 W
Title : Spanish
/ l- T7 H2 p1 D3 r3 \Language : Spanish  C4 N! X9 Q* h- \1 U0 z4 ]2 f3 D# E
Default : No& D, h/ [. |! c
Forced : No
" \  P7 \' l! Y7 u
& d: `5 J/ u* E2 r: ~8 Y4 A

2 [+ V2 p8 S3 b4 `Text #299 h; M9 t# f% _$ G% `/ k
ID : 31
8 c6 c0 V: @& g$ }1 ?6 VFormat : UTF-80 D4 Q8 {1 J/ S0 V9 H
Codec ID : S_TEXT/UTF8
4 ?& k4 p& @5 n; U4 {6 K4 WCodec ID/Info : UTF-8 Plain Text5 K; v  c3 y( b& f- ?. I
Duration : 1 h 23 min# r5 R& n& g; h9 n. U8 G
Bit rate : 32 b/s
: f/ ], p6 e& S% ^3 P( X2 lCount of elements : 660# j, t* Y) E  O( K9 U" n& h( y1 D
Stream size : 19.9 KiB (0%)3 }7 h- D' r0 t/ B
Title : Castilian' P- ^2 |( k; e5 I$ @
Language : Spanish
% P5 d- T; X0 W9 N% CDefault : No7 j7 c$ ~2 [2 \. x# l
Forced : No
: s" s: J$ q# U! S2 v' t$ N4 u2 p* |4 G* ]; E2 H

' V& N2 j( Y) B" GText #30- c# |( B; s9 S$ v9 y0 T
ID : 32) z, j6 G$ I' P! L% m( ~
Format : UTF-8( [# [: r3 x: G$ d1 F' ?9 @" d
Codec ID : S_TEXT/UTF83 r4 `- k' W/ P9 y' X" g! Y( [
Codec ID/Info : UTF-8 Plain Text8 @0 i* J' Y2 h
Duration : 1 h 23 min: N0 s3 ]1 o6 i) W
Bit rate : 34 b/s
( q/ T9 L% M# ^: n" j3 NCount of elements : 731
" l' P1 K; p; f% kStream size : 20.8 KiB (0%)
0 Y, L! `9 N- o& i& ]5 HTitle : Swedish
- _4 {) n  F1 X0 f, _0 R6 tLanguage : Swedish% W, W8 T0 B; ?/ U5 A/ F% F
Default : No
; R& I5 c7 R, V' ~6 T7 nForced : No1 _1 t& s" x; l: R) f( H  O& v3 Z

  p1 V( p/ z6 I7 E6 @, I; H

: C! a5 f7 A) h# S2 |/ CText #313 Z/ O7 p. p$ ?3 C  u1 e
ID : 33
' i+ `. ?! X5 d% ?Format : UTF-8; U3 b" d  \9 @) q! f
Codec ID : S_TEXT/UTF8) ?$ G. H/ A  r
Codec ID/Info : UTF-8 Plain Text
  }5 D/ z3 R8 \* _5 ?- UDuration : 1 h 23 min* N- t% f/ i. k4 [8 z  v2 Z; j. b
Bit rate : 98 b/s  w7 ]; e: q$ P/ {
Count of elements : 741
7 D; q  ]1 S' _0 Q+ j# iStream size : 60.1 KiB (0%)
3 C0 r, t2 t# L1 H& MTitle : Tamil
1 d. ?) z+ E7 ]' p$ K6 r9 O9 E0 j, o/ c- oLanguage : Tamil
) y7 R% K) f7 q3 Q, N2 tDefault : No
# i4 S7 U5 w4 O' u# C- LForced : No
8 p& W/ n9 R, s, ]# C
9 @3 F8 W/ L) `+ H; D' i

" T- {# O" A# k1 u6 oText #32
: g0 {/ i+ l. Q. Q' PID : 343 ~" u/ o0 n' n
Format : UTF-8+ e+ C4 N8 |, D! W  |5 T1 a$ V  s7 b
Codec ID : S_TEXT/UTF8) }( E/ E- w+ I6 B
Codec ID/Info : UTF-8 Plain Text) K# \" W3 N6 R! D* {  H
Duration : 1 h 23 min* v$ T" H2 X, h, e$ p
Bit rate : 89 b/s
5 ]) {1 `# L$ E' Y$ vCount of elements : 741
5 U1 M  v4 E& }# ~4 B5 `' N2 m8 L4 C  G2 lStream size : 54.5 KiB (0%)6 h. K9 v) B0 D3 t" |9 o* c
Title : Telugu  f. C! ~5 P  h8 _1 U# Y3 P
Language : Telugu! W) G1 r' m0 i8 ]
Default : No' a% l  R( g. d1 V$ e6 z
Forced : No
+ ?. G# ^0 v1 A1 L: y! d
% ~1 `8 s& n; w

5 ?  R- x( ?( x3 RText #33
2 z& p/ O3 E# \8 h4 f9 AID : 35* c' ?5 x; y' n. I
Format : UTF-8
" Z7 A5 N9 T- [9 A6 j) ^Codec ID : S_TEXT/UTF8( l  {* d5 l1 ?) w. W5 x+ q# w* u
Codec ID/Info : UTF-8 Plain Text
: J3 Z; q+ x# a5 _4 b9 S7 UDuration : 1 h 23 min
7 L% |" \# K- p5 T- \& Q9 t" r9 VBit rate : 92 b/s
1 s( T% V) I! P7 f( MCount of elements : 741
( O, t  N2 K, J5 Z  qStream size : 56.5 KiB (0%)
! S- {7 M- C$ O: c1 _( V7 }* L" G. xTitle : Thai
9 E5 z5 j- w. i2 w! Q. g7 u9 t0 bLanguage : Thai% Y* y6 h' m7 D3 s
Default : No! E/ N8 Y7 C) j/ n" B
Forced : No
; H% ]0 f" k) K/ O2 f, ?6 A" s/ G2 f- f
% b# ]/ C3 U9 a' C# H
Text #34
; f5 _. i8 D8 S: `' ?ID : 36
" M- m- }1 J) A6 \Format : UTF-8
8 k$ R. `$ m" |' V) SCodec ID : S_TEXT/UTF8
2 Z9 d" }; Q; p8 U# f6 fCodec ID/Info : UTF-8 Plain Text" [5 Q3 K+ d9 B& _+ Y4 F/ i  h2 j
Duration : 1 h 23 min! X- i4 }# B" f& ?( X
Bit rate : 36 b/s
: E) X6 ~7 U' `Count of elements : 730
  j  {' Z9 |2 b  R: oStream size : 22.5 KiB (0%)
9 J9 p9 w8 b+ I% g6 R+ [' p- A! mTitle : Turkish
6 g0 W8 \: F6 \9 C2 I- a8 y( @Language : Turkish3 K3 d$ Q* ^: s6 m3 W( S
Default : No' t6 D+ v) n0 M. R
Forced : No# J7 t4 E) k8 Y$ o+ x
/ c6 H- v/ w$ ]7 }

1 I2 O5 M& c: sMenu" R# d! j/ H" ]4 S1 L; H# c
00:00:00.000 : Amazon Studios
- G+ e% k- c, C7 R7 m00:00:22.000 : Scene 2
! f; ]) N3 t6 T00:00:39.000 : Scene 3
! c! I- Q. e" b% [00:02:24.000 : Scene 44 L6 T1 }% D- G7 K
00:09:13.000 : Scene 5) P$ Q# n; ^, T8 |4 r9 Q7 J
00:11:22.000 : Scene 6
: P. Y# ~# b9 {00:14:28.000 : Scene 79 l1 [+ i% J' G) N+ U8 Q
00:16:44.000 : Scene 8
5 Q- B! `& H! X2 ?: E. B  Z# l% |00:20:50.000 : Scene 9
9 a3 l; m2 C) L! y% S2 X00:21:37.000 : Scene 10
9 g# D4 T3 K, c1 M5 e00:25:05.000 : Scene 11
  F$ N+ \4 ^( h0 b$ R7 k00:29:15.000 : Scene 121 }0 |6 }( O2 k$ f) P( `
00:32:55.000 : Scene 13/ c) C8 i. `9 R% i7 r
00:33:45.000 : Scene 14
$ m" N! k( Z2 y/ }# j* s0 W9 c  G4 E00:36:20.000 : Scene 15
* \- W/ M, t' Z# W00:38:40.000 : Scene 16
/ G1 F4 c( J% ^4 z! c/ @7 D00:42:21.000 : Scene 176 K; ?& E1 j+ f. {
00:44:13.000 : Scene 18
0 k( q. K7 J5 d* k, _; e00:49:58.000 : Scene 19
0 a' i) Y: S( V% `7 \00:50:44.000 : Scene 20
6 y, u1 z* [* ]" e# B, [. y00:51:53.000 : Scene 21# w2 j( K+ k% W& \! ]5 t
00:59:35.000 : Scene 22
$ \" G! R+ N' }  ?( W: Q0 I01:01:05.000 : Scene 23. |- J; |. S6 \( j: d5 d2 `
01:05:43.000 : Scene 243 @+ V" H+ A! [2 f( B+ q- t: @
01:08:55.000 : Scene 25
6 r* ^- H0 c' B$ K! r& V$ T; x01:14:34.000 : Scene 26
/ l8 y- G& P. l3 Z6 @8 D, B7 r0 v01:19:18.000 : Scene 27
4 Z, h8 ]) B& c4 B" S01:20:35.000 : Scene 28
7 G1 Z! f$ Y9 d3 f/ }/ l01:21:33.000 : Acknowledgement* v5 o. p  Z, G' p  X- q
01:22:37.000 : End Credits
/ o5 j  _5 Q% ~/ m& {0 L; j

3 K! G% i5 L2 T# E3 n1 Y蓝光高清网提示您  点击下方附件名称  马上开始下载
1 }8 ~% m& C" C2 \+ U% u( w6 a/ k; K
0 d/ B- \1 B: R4 o
2 {1 N3 t# Z" Y+ W# @
多版本下载时请注意区分# A. ~9 Y" S/ F1 U5 O: x$ L

) p8 i$ x" u# [( R& }: z5 v6 U: p6 b

' }9 n/ F; r8 \孕母/人母诅咒4k Madres.2021.2160p.AMZN.WEB-DL.x265.10bit.HDR10Plus.DDP5.1-4k电影下载
; g, y/ w  f+ O; ~. ^( \+ \, ^1 l; {0 c8 E; p% ^# Q0 s; N
人母诅咒4k Madres.2021.2160p.AMZN.WEB-DL.x265.10bit.HDR10Plus.DDP5.1【自带中字】【4k HDR 8.93 GB】; ~' c3 C4 X1 i" f
人母诅咒4k Madres.2021.2160p.AMZN.WEB-DL.x265.10bit.HDR10Plus.DDP5.1-CM.torrent (大小:22.95 KB)
& z; W: S$ e& `2 x- [) H* V; y; u  S3 f, X
人母诅咒4k Madres.2021.2160p.AMZN.WEB-DL.x265.8bit.SDR.DDP5.1【4k SDR 6.01 GB】3 F$ z% M0 ?0 W) @
人母诅咒4k Madres.2021.2160p.AMZN.WEB-DL.x265.8bit.SDR.DDP5.1-NOGRP.torrent (大小:15.67 KB) 4 k/ @" j3 ~; Q7 B* q3 w" E& K, S& @
# I$ |: n9 j4 {# x0 y! h) e4 ?
加入蓝光高清网VIP会员  无限制下载本站所有资源---点这里

资源下载、资源播放、字幕使用、无法下载等常见问题---点这里
回复

使用道具 举报

您需要登录后才可以回帖 登录 | 立即注册

本版积分规则

烧友之家(蓝光高清网)本站内容部分由用户自主分享和转载自互联网,转载目的在于传递更多信息,并不代表本网赞同其观点和对其真实性负责。 如有侵权、违反国家法律政策行为,请联系我们,我们会第一时间及时清除和处理!
蓝光高清网 综合资讯平台
关注我们
  • 官方微信公众号
  • 扫码下载官方APP

X3.4 Licensed© 2001-2013 蓝光高清网 烧友之家APP |网站地图