游客您好
第三方账号登陆
  • 点击联系客服

    在线时间:9:00-18:00

    客服QQ

    1371333023

    电子邮件

    lanniao@1080pro.net
  • 烧友之家APP

    随时掌握烧友资讯

  • 扫描二维码

    关注微信公众号

推荐阅读
蓝鸟
未知星球 | 未知职业
  • 关注0
  • 粉丝2
  • 帖子95993
精选帖子
开启左侧

老亨利 4k Old.Henry.2021.2160p.WEB-DL.x265.10bit.HDR.DDP5.1-4k电影

[复制链接]
蓝鸟 发表于 2021-10-9 10:54:15 | 显示全部楼层 |阅读模式 打印 上一主题 下一主题
老亨利
上映时间:2021年
类型:剧情 犯罪 西部 
地区:美国 
导演:帕塔诗·蓬西里
主演:斯蒂芬·多尔夫 / 蒂姆·布雷克·尼尔森 / 小理察·斯贝特 / 马克斯·阿西涅加 / 斯科特·黑兹
画质标准:4K HDR  封装音轨:Dolby TrueHD 5.1 Dolby Atmos 
豆瓣评分:无评分
简       介
: d# d0 ^: O& g
2 h. Y+ a7 x9 x% p' J

& v% D# d- S8 B0 T/ \  一个农民带着一包现金收留一名受伤男子的故事。当一队人来要钱时,他必须决定信任谁。在防御围攻时,他展现了一个持枪的天才,他的真实身份受到了质疑。
% @/ ]5 d7 T) c1 S
8 a3 B$ Z  K0 ?# G7 p

* l9 S  g( g7 G影片参数9 l# h# g2 y2 x1 ~) U+ K8 f
老亨利4k Old.Henry.2021.2160p.WEB-DL.x265.10bit.HDR.DDP5.1-4k电影信息
2 S. C- H+ t; ^+ ^' H% r) uVideo& Z$ k% C0 z' L+ T5 ~1 ~- F8 `
ID : 1
4 o' c: X. u5 v  A$ tFormat : HEVC
; @, f7 t6 T+ z. Y) I+ sFormat/Info : High Efficiency Video Coding
9 j' ?6 y: y" E" b3 qFormat profile : Main 10@L5@High
9 k2 j# J3 ~% ?7 \; @# y+ i, @2 KHDR format : SMPTE ST 2086, HDR10 compatible
" ~- ~" X! B3 ~5 F5 t8 _" s& SCodec ID : V_MPEGH/ISO/HEVC
, z5 L7 w6 V4 L3 l1 e; L: W3 cDuration : 1 h 38 min8 q  d: D) n" w6 r# q
Bit rate : 24.3 Mb/s
' O" i# {! i  G# Y( I1 mWidth : 3 832 pixels2 R  W2 n: b. G( M( ]
Height : 1 436 pixels" O2 s2 X! C9 Y$ ?
Display aspect ratio : 2.669
* p% S5 i: w2 L3 _6 P9 n% M3 fFrame rate mode : Constant% G& [  F5 s5 p" U; l# q* B
Frame rate : 23.976 FPS3 [+ E# q4 f. w, o& R# k
Color space : YUV2 m& p6 ^3 T/ _  g
Chroma subsampling : 4:2:0 (Type 2)
& r& v! z. E, U8 BBit depth : 10 bits
) \0 w& k5 f8 |' q0 kBits/(Pixel*Frame) : 0.184& z' M6 R" [. G9 e5 }' T
Stream size : 16.7 GiB (98%)
% a/ j  U8 G+ b  Z9 h- U2 {Default : Yes
$ i  Q7 }8 J2 j) y- r/ j$ zForced : No* m* U- e7 ?) a# p% @- c) Q5 N. e( g
Color range : Limited( w/ U6 T. h0 G
Color primaries : BT.2020
6 v: `, e7 }" H, H1 I% S& NTransfer characteristics : PQ
; V3 ~5 |$ z; W- z' Z% ^Matrix coefficients : BT.2020 non-constant. i9 }; M; H: s
Mastering display color primaries : Display P3: W5 F/ b. N; a. z
Mastering display luminance : min: 0.0000 cd/m2, max: 200 cd/m2
. y8 A" d6 s3 J9 n3 {0 |. a5 m2 cMaximum Content Light Level : 574 cd/m26 U! v; }, T3 `/ _7 k. Z% u9 K
Maximum Frame-Average Light Level : 111 cd/m2/ o! e0 a  P; F: C) R

  G( U; W" s6 _; ?8 W& e

! Z, e/ ~# v0 h5 ]Audio( U- r4 w7 {% ^, Z' X. {% B
ID : 29 O5 d; |. Q' Q+ W
Format : AC-3
" R! h' H. ?: W& J3 YFormat/Info : Audio Coding 3
2 |- _( ]8 @) J9 pCommercial name : Dolby Digital( K" H: f/ q. P" @7 @5 R
Codec ID : A_AC3
3 N; @) V5 L- x/ z2 X# [6 D) \Duration : 1 h 38 min
4 Q/ v5 K+ a( |  K& W3 s+ h, tBit rate mode : Constant
# d& e, C1 e8 HBit rate : 384 kb/s
4 X2 z: K& c& I7 j  rChannel(s) : 6 channels5 h  ]9 |3 P1 a' u" D$ C) L( @9 ?4 ?
Channel layout : L R C LFE Ls Rs- O  F' Y, ~' e/ r. z/ V
Sampling rate : 48.0 kHz
+ |) ^# \- d8 {( v2 R3 c4 MFrame rate : 31.250 FPS (1536 SPF)7 i  m) [7 E- P8 W5 [
Compression mode : Lossy% I4 Y  w/ F$ r# e. g  h
Stream size : 271 MiB (2%)* x" x6 x; G( a3 Q, x$ c
Title : English2 x, T/ a0 ^; o' F2 A
Language : English
6 H( X1 k+ |* G' _Service kind : Complete Main
5 C' _" E1 f  R& SDefault : No" z; ^; ~5 z% B
Forced : No! l& g; @  S4 o+ |8 S/ p- ~

& s/ }& ]/ X4 q0 h

; a( }6 s! o3 S0 S( r( eText
7 c: B. R$ ^& t* z) l* n) j" cID : 3
: A$ @8 {: G, L# N. v2 b, m' cFormat : UTF-8
. W2 P9 i6 C' ~. H# Z: wCodec ID : S_TEXT/UTF8
, D7 G1 \: \1 @& p, h4 tCodec ID/Info : UTF-8 Plain Text
% L1 p3 A% @* L6 L* ~3 xDuration : 1 h 32 min+ y4 S1 \+ L$ O$ }5 d
Bit rate : 34 b/s
0 }# ^) B3 F" T7 ^Count of elements : 7843 v. b+ K- I( o0 F
Stream size : 23.0 KiB (0%)5 E* k% U* Q5 ~
Language : English( {- r( x: [8 m# d) m$ W
Default : Yes" }) |+ N. _* v. X( P+ u' Z  T
Forced : No

, o( y2 g& S; ^: Z! \4 d2 N2 N0 c
% y5 U, n5 N* P; B8 m) ]8 j- G蓝光高清网提示您  点击下方附件名称  马上开始下载
. z+ _8 s3 p3 X- O, z
. a# v+ B3 D0 e/ ^: i! z$ Q

& ^! g% h' w* l5 x" E多版本下载时请注意区分& ~; G1 @/ M6 _
5 }, O# \- Y' c2 ], l$ b" I; U3 ^
$ G  D4 e7 B: e, |" Y
老亨利4k Old.Henry.2021.2160p.WEB-DL.x265.10bit.HDR.DDP5.1-4k电影下载' ?: Y8 C' T4 R. Y- U& N- ?: `
1 e/ p2 {, {' d
老亨利4k Old.Henry.2021.2160p.WEB-DL.x265.10bit.HDR.DDP5.1【16.98 GB】5 C$ z" H/ R$ U  y
老亨利4k Old.Henry.2021.2160p.WEB-DL.x265.10bit.HDR.DDP5.1-NOGRP.torrent (大小:21.86 KB) & X( ]3 i# U. v4 n
6 x2 b! ]$ K% u. M
老亨利4k Old.Henry.2021.2160p.WEB-DL.x265.10bit.SDR.DDP5.1【8.49 GB】- K4 R1 N9 j4 ?! x; E0 s/ ^' I
老亨利4k Old.Henry.2021.2160p.WEB-DL.x265.10bit.SDR.DDP5.1-NOGRP.torrent (大小:21.86 KB) 7 ^2 }0 I, L6 h. q7 |( t

2 A3 n2 I1 K. m- P' K
加入蓝光高清网VIP会员  无限制下载本站所有资源---点这里

资源下载、资源播放、字幕使用、无法下载等常见问题---点这里
回复

使用道具 举报

您需要登录后才可以回帖 登录 | 立即注册

本版积分规则

烧友之家(蓝光高清网)本站内容部分由用户自主分享和转载自互联网,转载目的在于传递更多信息,并不代表本网赞同其观点和对其真实性负责。 如有侵权、违反国家法律政策行为,请联系我们,我们会第一时间及时清除和处理!
蓝光高清网 综合资讯平台
关注我们
  • 官方微信公众号
  • 扫码下载官方APP

X3.4 Licensed© 2001-2013 蓝光高清网 烧友之家APP |网站地图