游客您好
第三方账号登陆
  • 点击联系客服

    在线时间:9:00-18:00

    客服QQ

    1371333023

    电子邮件

    lanniao@1080pro.net
  • 烧友之家APP

    随时掌握烧友资讯

  • 扫描二维码

    关注微信公众号

推荐阅读
蓝鸟
未知星球 | 未知职业
  • 关注0
  • 粉丝2
  • 帖子95993
精选帖子
开启左侧

死亡来临 4k South.of.Heaven.2021.2160p.WEB-DL.x265.10bit.SDR.DDP5.1-4k电影下载【10.40 GB】

[复制链接]
蓝鸟 发表于 2021-10-9 11:07:48 | 显示全部楼层 |阅读模式 打印 上一主题 下一主题
死亡来临
上映时间:2021年
类型:动作 惊悚 
地区:美国 
导演:亚伦·凯莎莱斯
主演:杰森·苏戴奇斯 / 伊万杰琳·莉莉
画质标准:4K SDR  封装音轨:Dolby TrueHD 5.1 Dolby Atmos 
豆瓣评分:无评分
简       介3 ~+ z1 T6 I  J3 e

6 w9 D; H& ^: Q! E4 _8 d; l) l
+ B6 H3 d: N0 b" M1 M' a$ X3 ~
  杰森·苏戴奇斯、伊万杰琳·莉莉将主演动作惊悚片[死亡来临](Till Death),亚伦·凯莎莱斯([大坏狼])执导,亚伦与纳沃特·帕普莎多、Kai Mark共同操刀剧本。影片故事讲述因持枪抢劫而被判重罪的吉米在服刑12年后,获得假释。而此时,他的童年旧爱安妮身患癌症,即将离世。获释后的他发誓要给安妮最好的临终时刻。不幸的是,一切都没那么简单。影片将于2020年1月开拍。
7 J0 D8 [. a  Z7 u5 [5 Y8 `
2 p0 q  p2 `7 @5 c- Q

. K' `" `$ p1 T5 \影片参数" q5 Z# l* F& x1 z( _. b$ I
死亡来临前 / Till Death/死亡来临4k South.of.Heaven.2021.2160p.WEB-DL.x265.10bit.SDR.DDP5.1-4k电影信息" d4 j# K) x! P4 _7 r5 M
Video
- @8 x# |6 D6 [( c4 iID : 1
3 }, G: l9 Z$ D9 u5 xFormat : HEVC: ?% F' x6 y6 F7 S+ N6 v
Format/Info : High Efficiency Video Coding! |' n# `1 q4 v  J9 E( |
Format profile : Main 10@L5@High5 \$ ^5 }$ ~) b$ m6 e
Codec ID : V_MPEGH/ISO/HEVC
. b  h$ ~7 `6 W- h* L' r- YDuration : 1 h 59 min
' H4 d" y6 D4 zBit rate : 12.0 Mb/s* {  m) m: O3 q2 V0 q
Width : 3 832 pixels
; ?) g& a8 X# n4 uHeight : 1 628 pixels
. ^9 V* w8 \, }+ cDisplay aspect ratio : 2.35:1
" _4 w! T: D" j: D" `8 @Frame rate mode : Constant; d* u/ V9 L2 x9 \& T' R
Frame rate : 23.976 FPS
5 B+ }( _: \' Z- ^# N3 mColor space : YUV
) Q1 a1 q' {9 A% V. m. }  lChroma subsampling : 4:2:0
6 N: C5 v+ ]9 h2 G3 X3 H) G: WBit depth : 10 bits( h; C3 W; e# @, |9 z& y( M
Bits/(Pixel*Frame) : 0.080% f2 ?$ L  f1 b* w) Y
Stream size : 10.1 GiB (97%)- c% p& ]5 _" z/ P6 Q8 Y0 w% n8 A
Default : Yes
; o' p; t% a0 N) Q4 BForced : No  ?9 G1 G6 Q" Q  z
Color range : Limited
; U0 ?" q! n9 P& @6 [( ?Color primaries : BT.709
/ t5 W( d2 l$ t% O3 W1 |Transfer characteristics : BT.7095 ^  B; ~: }9 ^% }2 p$ T; `
Matrix coefficients : BT.709
7 D2 N6 O9 K( S
9 o" L* E9 A9 J) |0 r2 [4 s
& @) t. n3 s8 P5 I% B1 b: _1 S5 I  I
Audio3 j( q9 m7 b5 e1 B2 f
ID : 28 q0 G  ~+ x' k8 S" X
Format : AC-3
+ w8 t* C9 }: X# X6 oFormat/Info : Audio Coding 3* l1 Y$ W4 ~, `7 a  |2 x0 x5 M
Commercial name : Dolby Digital
6 f( e# j, f8 {3 h1 b  z0 |9 X5 x* NCodec ID : A_AC3
& |; P7 g( J* D' Q7 V  i( UDuration : 1 h 59 min
1 }; m! U& @1 y+ Q* I8 kBit rate mode : Constant+ }* J3 I9 t6 @* Y
Bit rate : 384 kb/s5 r0 o3 b) h$ C8 e5 p" _
Channel(s) : 6 channels9 I0 C# L- V4 E" ~
Channel layout : L R C LFE Ls Rs
* o8 o3 z* h$ @- ]9 }# ISampling rate : 48.0 kHz( W" G2 U: {+ e( h! V. _4 J& k
Frame rate : 31.250 FPS (1536 SPF); p: ~2 M1 \; ^4 F, J/ m' e& K
Compression mode : Lossy0 R2 v: ?$ |4 c5 P  Q2 H
Stream size : 329 MiB (3%)- |% p% h1 p7 c  z
Title : English7 p/ U* N4 V% e
Language : English2 B2 O8 f( w: p# q* @
Service kind : Complete Main
- A, _; l( A0 D2 f, w3 kDefault : No
4 H) M# I! z+ \* u7 KForced : No$ h' w: V8 X) E" S% j

  q; b- {* R' Q, V5 T9 B1 G

  c# o8 f2 q  j% o; J% V$ [Text #13 m% a5 \0 j# G
ID : 3  ?* t  w; M- _& ], m0 G1 |
Format : UTF-8
* `* o: [8 A2 C* ^( ?Codec ID : S_TEXT/UTF8: F" w* X' Y% {) S( Q4 ~
Codec ID/Info : UTF-8 Plain Text* F) |: }5 c# H5 V  E' V. |8 k
Duration : 1 h 55 min
! ?! M* k# B% t" G* O% J9 U( N3 c5 yBit rate : 48 b/s
3 t. H! N) ?0 Z$ X1 Z3 GCount of elements : 1461
0 E. p9 a! m9 G$ OStream size : 40.9 KiB (0%)
6 t7 @1 \5 k) h( z8 H# ]Language : English
+ g  K" q# \* Y8 H6 R# oDefault : Yes
) h+ R7 j9 v' O4 tForced : No$ D- a# c; u. C

+ Z6 b. H" P0 r

5 T6 G1 r; G# ]" q* B0 }8 o, {0 qText #2& d1 n1 e2 }7 C
ID : 4
9 m' h  M* l" p0 c) F: kFormat : UTF-86 L! R2 w8 j2 u  ]6 X
Codec ID : S_TEXT/UTF8; i7 K4 z+ f+ u" O
Codec ID/Info : UTF-8 Plain Text2 e+ {# U7 Q& I! r
Duration : 1 h 58 min
: i3 _& O# j1 \) M- N) eBit rate : 46 b/s
; q, E9 J' V0 a1 n: E3 ^" YCount of elements : 1332( M+ O: W& V# ?+ i
Stream size : 39.9 KiB (0%)/ w0 r  T3 M8 H+ r) u1 B3 U. |
Title : Spanish/ ?. O2 W+ k% y* p6 j
Language : Spanish
9 n) D  Y% a7 k! I1 }4 R" M, E, O, q- IDefault : No
% T8 [/ }; P% f- t+ t1 xForced : No
1 i5 @+ g; y+ O4 D- X) P

9 r2 p9 W% d6 P蓝光高清网提示您  点击下方附件名称  马上开始下载7 z# ^' X% Y6 X

: l$ x3 I& V# J; o; K# b4 @; \
( W: s  P7 Q: y) ?
死亡来临前 / Till Death/死亡来临4k South.of.Heaven.2021.2160p.WEB-DL.x265.10bit.SDR.DDP5.1-4k电影下载
2 x: q% m5 m$ ?
, c, f: N/ ^! a5 m/ K死亡来临4k South.of.Heaven.2021.2160p.WEB-DL.x265.10bit.SDR.DDP5.1【10.40 GB】
! Q3 i4 J- E6 ^9 x 死亡来临4k South.of.Heaven.2021.2160p.WEB-DL.x265.10bit.SDR.DDP5.1-NOGRP.torrent (大小:13.65 KB) 2 I! q  \: k5 H( R+ H3 j
! U2 T- p: e3 \3 M* g
加入蓝光高清网VIP会员  无限制下载本站所有资源---点这里

资源下载、资源播放、字幕使用、无法下载等常见问题---点这里
回复

使用道具 举报

精彩评论1

wjl334666 发表于 7 天前 | 显示全部楼层
时大家啊回家啊是的
回复 支持 反对

使用道具 举报

您需要登录后才可以回帖 登录 | 立即注册

本版积分规则

烧友之家(蓝光高清网)本站内容部分由用户自主分享和转载自互联网,转载目的在于传递更多信息,并不代表本网赞同其观点和对其真实性负责。 如有侵权、违反国家法律政策行为,请联系我们,我们会第一时间及时清除和处理!
蓝光高清网 综合资讯平台
关注我们
  • 官方微信公众号
  • 扫码下载官方APP

X3.4 Licensed© 2001-2013 蓝光高清网 烧友之家APP |网站地图