游客您好
第三方账号登陆
  • 点击联系客服

    在线时间:9:00-18:00

    客服QQ

    1371333023

    电子邮件

    lanniao@1080pro.net
  • 烧友之家APP

    随时掌握烧友资讯

  • 扫描二维码

    关注微信公众号

推荐阅读
蓝鸟
未知星球 | 未知职业
  • 关注0
  • 粉丝2
  • 帖子95993
精选帖子
开启左侧

[4K高清美剧] 群星之间 4k Among.the.Stars.S01.2160p.DSNP.WEB-DL.x265.10bit.HDR.DDP5.1.Atmos-4k美剧现在-32.91 GB

[复制链接]
蓝鸟 发表于 2021-10-9 11:11:44 | 显示全部楼层 |阅读模式 打印 上一主题 下一主题
群星之间

状态:第一季(完结)
上映时间:2021-10-06
类型:纪录 
地区:美国
导演:Chris Cassidy
主演:
画质标准:4K(3840x2160) 封装音轨:MKV 音轨编码:其他DD
豆瓣评分:8.1分
剧情简介
暂无简介....
影片参数
群星之间4k Among.the.Stars.S01.2160p.DSNP.WEB-DL.x265.10bit.HDR.DDP5.1.Atmos-4k美剧信息
Video
ID : 1
Format : HEVC
Format/Info : High Efficiency Video Coding
Format profile : Main 10@L5@High
HDR format : SMPTE ST 2086, HDR10 compatible
Codec ID : V_MPEGH/ISO/HEVC
Duration : 52 min 19 s
Bit rate : 16.5 Mb/s
Width : 3 840 pixels
Height : 2 160 pixels
Display aspect ratio : 16:9
Frame rate mode : Constant
Frame rate : 23.976 (24000/1001) FPS
Color space : YUV
Chroma subsampling : 4:2:0
Bit depth : 10 bits
Bits/(Pixel*Frame) : 0.083
Stream size : 6.02 GiB (96%)
Language : English
Default : Yes
Forced : No
Color range : Limited
Color primaries : BT.2020
Transfer characteristics : PQ
Matrix coefficients : BT.2020 non-constant
Mastering display color primaries : BT.2020
Mastering display luminance : min: 0.0010 cd/m2, max: 1000 cd/m2


Audio
ID : 2
Format : E-AC-3 JOC
Format/Info : Enhanced AC-3 with Joint Object Coding
Commercial name : Dolby Digital Plus with Dolby Atmos
Format settings : Dolby Surround EX
Codec ID : A_EAC3
Duration : 52 min 19 s
Bit rate mode : Constant
Bit rate : 768 kb/s
Channel(s) : 6 channels
Channel layout : L R C LFE Ls Rs
Sampling rate : 48.0 kHz
Frame rate : 31.250 FPS (1536 SPF)
Compression mode : Lossy
Stream size : 287 MiB (4%)
Language : English
Service kind : Complete Main
Default : Yes
Forced : No
Complexity index : 16
Number of dynamic objects : 15
Bed channel count : 1 channel
Bed channel configuration : LFE


Text #1
ID : 3
Format : UTF-8
Codec ID : S_TEXT/UTF8
Codec ID/Info : UTF-8 Plain Text
Duration : 50 min 56 s
Bit rate : 99 b/s
Count of elements : 746
Stream size : 37.2 KiB (0%)
Title : English (SDH)
Language : English
Default : No
Forced : No


Text #2
ID : 4
Format : UTF-8
Codec ID : S_TEXT/UTF8
Codec ID/Info : UTF-8 Plain Text
Duration : 52 min 4 s
Bit rate : 86 b/s
Count of elements : 749
Stream size : 33.1 KiB (0%)
Title : Dansk
Language : Danish
Default : No
Forced : No


Text #3
ID : 5
Format : UTF-8
Codec ID : S_TEXT/UTF8
Codec ID/Info : UTF-8 Plain Text
Duration : 52 min 4 s
Bit rate : 96 b/s
Count of elements : 750
Stream size : 36.8 KiB (0%)
Title : Deutsch
Language : German
Default : No
Forced : No


Text #4
ID : 6
Format : UTF-8
Codec ID : S_TEXT/UTF8
Codec ID/Info : UTF-8 Plain Text
Duration : 52 min 4 s
Bit rate : 87 b/s
Count of elements : 754
Stream size : 33.3 KiB (0%)
Title : Español
Language : Spanish
Default : No
Forced : No


Text #5
ID : 7
Format : UTF-8
Codec ID : S_TEXT/UTF8
Codec ID/Info : UTF-8 Plain Text
Duration : 52 min 4 s
Bit rate : 95 b/s
Count of elements : 753
Stream size : 36.3 KiB (0%)
Title : Español (Latinoamericano)
Language : Spanish
Default : No
Forced : No


Text #6
ID : 8
Format : UTF-8
Codec ID : S_TEXT/UTF8
Codec ID/Info : UTF-8 Plain Text
Duration : 52 min 4 s
Bit rate : 78 b/s
Count of elements : 719
Stream size : 29.8 KiB (0%)
Title : Suomi
Language : Finnish
Default : No
Forced : No


Text #7
ID : 9
Format : UTF-8
Codec ID : S_TEXT/UTF8
Codec ID/Info : UTF-8 Plain Text
Duration : 52 min 4 s
Bit rate : 97 b/s
Count of elements : 774
Stream size : 37.2 KiB (0%)
Title : Français
Language : French
Default : No
Forced : No


Text #8
ID : 10
Format : UTF-8
Codec ID : S_TEXT/UTF8
Codec ID/Info : UTF-8 Plain Text
Duration : 52 min 4 s
Bit rate : 91 b/s
Count of elements : 755
Stream size : 35.0 KiB (0%)
Title : Italiano
Language : Italian
Default : No
Forced : No


Text #9
ID : 11
Format : UTF-8
Codec ID : S_TEXT/UTF8
Codec ID/Info : UTF-8 Plain Text
Duration : 52 min 4 s
Bit rate : 74 b/s
Count of elements : 710
Stream size : 28.4 KiB (0%)
Title : Japanese
Language : Japanese
Default : No
Forced : No


Text #10
ID : 12
Format : UTF-8
Codec ID : S_TEXT/UTF8
Codec ID/Info : UTF-8 Plain Text
Duration : 52 min 4 s
Bit rate : 78 b/s
Count of elements : 605
Stream size : 30.0 KiB (0%)
Title : Nederlands
Language : Dutch
Default : No
Forced : No


Text #11
ID : 13
Format : UTF-8
Codec ID : S_TEXT/UTF8
Codec ID/Info : UTF-8 Plain Text
Duration : 52 min 4 s
Bit rate : 86 b/s
Count of elements : 749
Stream size : 33.2 KiB (0%)
Title : Norsk
Language : Norwegian
Default : No
Forced : No


Text #12
ID : 14
Format : UTF-8
Codec ID : S_TEXT/UTF8
Codec ID/Info : UTF-8 Plain Text
Duration : 52 min 4 s
Bit rate : 67 b/s
Count of elements : 698
Stream size : 25.9 KiB (0%)
Title : Polski
Language : Polish
Default : No
Forced : No


Text #13
ID : 15
Format : UTF-8
Codec ID : S_TEXT/UTF8
Codec ID/Info : UTF-8 Plain Text
Duration : 52 min 4 s
Bit rate : 91 b/s
Count of elements : 752
Stream size : 34.7 KiB (0%)
Title : Português
Language : Portuguese
Default : No
Forced : No


Text #14
ID : 16
Format : UTF-8
Codec ID : S_TEXT/UTF8
Codec ID/Info : UTF-8 Plain Text
Duration : 52 min 4 s
Bit rate : 90 b/s
Count of elements : 757
Stream size : 34.7 KiB (0%)
Title : Português (Brasil)
Language : Portuguese
Default : No
Forced : No


Text #15
ID : 17
Format : UTF-8
Codec ID : S_TEXT/UTF8
Codec ID/Info : UTF-8 Plain Text
Duration : 52 min 4 s
Bit rate : 92 b/s
Count of elements : 734
Stream size : 35.2 KiB (0%)
Title : Svenska
Language : Swedish
Default : No
Forced : No


Text #16
ID : 18
Format : UTF-8
Codec ID : S_TEXT/UTF8
Codec ID/Info : UTF-8 Plain Text
Duration : 52 min 4 s
Bit rate : 71 b/s
Count of elements : 766
Stream size : 27.2 KiB (0%)
Title : Chinese (Hong Kong)
Language : Chinese
Default : No
Forced : No


Text #17
ID : 19
Format : UTF-8
Codec ID : S_TEXT/UTF8
Codec ID/Info : UTF-8 Plain Text
Duration : 52 min 4 s
Bit rate : 71 b/s
Count of elements : 764
Stream size : 27.3 KiB (0%)
Title : Chinese (Simplified)
Language : Chinese
Default : No
Forced : No


蓝光高清网提示您  点击下方附件名称  马上开始下载


群星之间4k Among.the.Stars.S01.2160p.DSNP.WEB-DL.x265.10bit.HDR.DDP5.1.Atmos-4k美剧下载


群星之间4k Among.the.Stars.S01.2160p.DSNP.WEB-DL.x265.10bit.HDR.DDP5.1.Atmos【自带中字】【32.91 GB】

群星之间4k Among.the.Stars.S01.2160p.DSNP.WEB-DL.x265.10bit.HDR.DDP5.1.Atmos-KOGi.torrent (大小:42.2 KB)
加入蓝光高清网VIP会员  无限制下载本站所有资源---点这里

资源下载、资源播放、字幕使用、无法下载等常见问题---点这里
回复

使用道具 举报

精彩评论2

坐地巡天 发表于 7 天前 | 显示全部楼层
谢谢楼主分享
回复 支持 反对

使用道具 举报

水原千鹤 发表于 7 天前 | 显示全部楼层



谢谢楼主分享
回复 支持 反对

使用道具 举报

您需要登录后才可以回帖 登录 | 立即注册

本版积分规则

烧友之家(蓝光高清网)本站内容部分由用户自主分享和转载自互联网,转载目的在于传递更多信息,并不代表本网赞同其观点和对其真实性负责。 如有侵权、违反国家法律政策行为,请联系我们,我们会第一时间及时清除和处理!
蓝光高清网 综合资讯平台
关注我们
  • 官方微信公众号
  • 扫码下载官方APP

X3.4 Licensed© 2001-2013 蓝光高清网 烧友之家APP |网站地图