游客您好
第三方账号登陆
  • 点击联系客服

    在线时间:9:00-18:00

    客服QQ

    1371333023

    电子邮件

    lanniao@1080pro.net
  • 烧友之家APP

    随时掌握烧友资讯

  • 扫描二维码

    关注微信公众号

推荐阅读
蓝鸟
未知星球 | 未知职业
  • 关注0
  • 粉丝2
  • 帖子95993
精选帖子
开启左侧

[4K高清美剧] 阿卡普尔科4k Acapulco.2021.S01E01.2160p.ATVP.WEB-DL.DDP5.1.Atmos.DV.MKV.x265-4k美剧下载—4.91 GB

[复制链接]
蓝鸟 发表于 2021-10-10 12:25:11 | 显示全部楼层 |阅读模式 打印 上一主题 下一主题
阿卡普尔科

状态:第一季(更新至第2集 共10集)
上映时间:2021-10-08
类型:喜剧 
地区:美国
导演:Gaz Alazraki
主演:欧赫尼奥·德尔维斯
画质标准:4K(3840x2160) 封装音轨:MKV 音轨编码:其他DD
豆瓣评分:无评分
剧情简介
  Apple TV+预定半小时双语喜剧《阿卡普尔科 Acapulco》。
  这是一部西班牙语-英语剧集,Eugenio Derbez担任执行制片并出演,灵感来自他主演的电影《如何做一名拉丁情人 How to Be A Latin Lover》。
  故事讲述一名年轻墨西哥男子梦想成真,在阿卡普尔科最热门的度假胜地找到了一份千载难逢的工作。随着自己所有的信仰和道德观念都开始被颠覆,他很快意识到这份工作比想象中要复杂得多。该剧背景为1984年,Derbez饰演当下时刻的主角,并担任旁白。
  本剧由《佐伊的超凡歌单》主创Austin Winsberg,和《半血缘兄弟》编剧Eduardo Cisneros、Jason Shuman共同创作。Winsberg担任剧集运作人,《老爸老妈浪漫史》编剧Chris Harris为联合剧集运作人。....
影片参数
阿卡普尔科4k Acapulco.2021.S01E01.2160p.ATVP.WEB-DL.DDP5.1.Atmos.DV.MKV.x265-4k美剧信息
Video
ID : 1
Format : HEVC
Format/Info : High Efficiency Video Coding
Format profile : Main 10@L5@High
HDR format : Dolby Vision, Version 1.0, dvhe.05.06, BL+RPU
Codec ID : V_MPEGH/ISO/HEVC
Duration : 36 min 7 s
Bit rate : 24.2 Mb/s
Width : 3 840 pixels
Height : 2 160 pixels
Display aspect ratio : 16:9
Frame rate mode : Constant
Frame rate : 23.976 (24000/1001) FPS
Color space : YUV
Chroma subsampling : 4:2:0
Bit depth : 10 bits
Bits/(Pixel*Frame) : 0.121
Stream size : 6.09 GiB (95%)
Language : English
Default : Yes
Forced : No


Audio
ID : 2
Format : E-AC-3 JOC
Format/Info : Enhanced AC-3 with Joint Object Coding
Commercial name : Dolby Digital Plus with Dolby Atmos
Codec ID : A_EAC3
Duration : 36 min 7 s
Bit rate mode : Constant
Bit rate : 768 kb/s
Channel(s) : 6 channels
Channel layout : L R C LFE Ls Rs
Sampling rate : 48.0 kHz
Frame rate : 31.250 FPS (1536 SPF)
Compression mode : Lossy
Stream size : 198 MiB (3%)
Language : English
Service kind : Complete Main
Default : Yes
Forced : No
Complexity index : 16
Number of dynamic objects : 15
Bed channel count : 1 channel
Bed channel configuration : LFE


Text #1
ID : 3
Format : UTF-8
Codec ID : S_TEXT/UTF8
Codec ID/Info : UTF-8 Plain Text
Title : English [Forced]
Language : English
Default : Yes
Forced : Yes


Text #2
ID : 4
Format : UTF-8
Codec ID : S_TEXT/UTF8
Codec ID/Info : UTF-8 Plain Text
Title : English
Language : English
Default : No
Forced : No


Text #3
ID : 5
Format : UTF-8
Codec ID : S_TEXT/UTF8
Codec ID/Info : UTF-8 Plain Text
Title : Arabic
Language : Arabic
Default : No
Forced : No


Text #4
ID : 6
Format : UTF-8
Codec ID : S_TEXT/UTF8
Codec ID/Info : UTF-8 Plain Text
Title : Bulgarian
Language : Bulgarian
Default : No
Forced : No


Text #5
ID : 7
Format : UTF-8
Codec ID : S_TEXT/UTF8
Codec ID/Info : UTF-8 Plain Text
Title : Chinese Simplified
Language : Chinese
Default : No
Forced : No


Text #6
ID : 8
Format : UTF-8
Codec ID : S_TEXT/UTF8
Codec ID/Info : UTF-8 Plain Text
Title : Chinese Traditional
Language : Chinese
Default : No
Forced : No


蓝光高清网提示您  点击下方附件名称  马上开始下载


多版本下载时请注意区分


阿卡普尔科4k Acapulco.2021.S01E01.2160p.ATVP.WEB-DL.DDP5.1.Atmos.DV.MKV.x265-4k美剧下载


阿卡普尔科4k Acapulco.2021.S01E01.2160p.ATVP.WEB-DL.DDP5.1.Atmos.DV.MKV.x265【6.42 GB】
阿卡普尔科4k Acapulco.2021.S01E01.2160p.ATVP.WEB-DL.DDP5.1.Atmos.DV.MKV.x265-GGEZ.torrent (大小:16.7 KB)


阿卡普尔科4k Acapulco.2021.S01E01.2160p.ATVP.WEB-DL.DDP5.1.Atmos.DV.MP4.x265【6.42 GB】
阿卡普尔科4k Acapulco.2021.S01E01.2160p.ATVP.WEB-DL.DDP5.1.Atmos.DV.MP4.x265-DVSUX.torrent (大小:16.71 KB)


阿卡普尔科4k Acapulco.2021.S01E01.2160p.WEB.H265【5.39 GB】
阿卡普尔科4k Acapulco.2021.S01E01.2160p.WEB.H265-GGEZ.torrent (大小:14.1 KB)


阿卡普尔科4k Acapulco.2021.S01E02.HDR.2160p.WEB.H265【4.91 GB】
阿卡普尔科4k Acapulco.2021.S01E02.HDR.2160p.WEB.H265-GGEZ.torrent (大小:25.16 KB)


阿卡普尔科4k Acapulco.2021.S01E02.2160p.WEB.H265【4.21 GB】
阿卡普尔科4k Acapulco.2021.S01E02.2160p.WEB.H265-GGEZ.torrent (大小:21.68 KB)

加入蓝光高清网VIP会员  无限制下载本站所有资源---点这里

资源下载、资源播放、字幕使用、无法下载等常见问题---点这里
回复

使用道具 举报

您需要登录后才可以回帖 登录 | 立即注册

本版积分规则

烧友之家(蓝光高清网)本站内容部分由用户自主分享和转载自互联网,转载目的在于传递更多信息,并不代表本网赞同其观点和对其真实性负责。 如有侵权、违反国家法律政策行为,请联系我们,我们会第一时间及时清除和处理!
蓝光高清网 综合资讯平台
关注我们
  • 官方微信公众号
  • 扫码下载官方APP

X3.4 Licensed© 2001-2013 蓝光高清网 烧友之家APP |网站地图