游客您好
第三方账号登陆
  • 点击联系客服

    在线时间:9:00-18:00

    客服QQ

    1371333023

    电子邮件

    lanniao@1080pro.net
  • 烧友之家APP

    随时掌握烧友资讯

  • 扫描二维码

    关注微信公众号

推荐阅读
蓝鸟
未知星球 | 未知职业
  • 关注0
  • 粉丝2
  • 帖子95993
精选帖子
开启左侧

[4K高清美剧] 世界之战 4k War.Of.The.Worlds.2019.S01.2160p.WEB-DL.DDP5.1.x265-美剧下载—36.07 GB

[复制链接]
蓝鸟 发表于 2021-10-10 12:28:58 | 显示全部楼层 |阅读模式 打印 上一主题 下一主题
世界之战

状态:第一季(完结)
上映时间:2019-10-28
类型:剧情 科幻 悬疑 
地区:美国
导演:吉尔斯·库里耶 / 理查德·克拉克
主演:黛西·埃德加-琼斯 / 蕾雅·德吕盖 / 加布里埃尔·伯恩 / 娜塔莎·里特 / 巴约·巴达莫西
画质标准:4K(3840x2160) 封装音轨:MKV 音轨编码:其他DD
豆瓣评分:6.1分
剧情简介
  AGC Television联同法国台Canal+及Fox Networks Group的欧洲+非洲分部拍摄经典科幻题材剧《世界之战 War of the Worlds》,这部改编自H.G. Wells同名小说的剧集会有8集,每集60分钟,现正于英国及法国拍摄。
  这版本的主演是Gabriel Byrne及Elizabeth McGovern,其他演员包括Léa Drucker、Natasha Little、Daisy Edgar Jones、Stéphane Caillard、Adel Bencherif及Guillaume Gouix....
本帖最后由 蓝鸟 于 2021-10-10 12:33 编辑

影片参数
世界大战 / 地球人大战火星人/世界之战4k War.Of.The.Worlds.2019.S01.2160p.WEB-DL.DDP5.1.x265-美剧信息
Video
ID : 1
Format : HEVC
Format/Info : High Efficiency Video Coding
Format profile : Main 10@L5@High
Codec ID : V_MPEGH/ISO/HEVC
Duration : 52 min 22 s
Bit rate : 12.1 Mb/s
Width : 3 840 pixels
Height : 1 606 pixels
Display aspect ratio : 2.40:1
Frame rate mode : Constant
Frame rate : 23.976 FPS
Color space : YUV
Chroma subsampling : 4:2:0
Bit depth : 10 bits
Bits/(Pixel*Frame) : 0.082
Stream size : 4.42 GiB (95%)
Default : Yes
Forced : No
Color range : Limited
Color primaries : BT.709
Transfer characteristics : BT.709
Matrix coefficients : BT.709


Audio
ID : 2
Format : E-AC-3
Format/Info : Enhanced AC-3
Commercial name : Dolby Digital Plus
Codec ID : A_EAC3
Duration : 52 min 22 s
Bit rate mode : Constant
Bit rate : 640 kb/s
Channel(s) : 6 channels
Channel layout : L R C LFE Ls Rs
Sampling rate : 48.0 kHz
Frame rate : 31.250 FPS (1536 SPF)
Compression mode : Lossy
Stream size : 240 MiB (5%)
Language : English
Service kind : Complete Main
Default : Yes
Forced : No


Text #1
ID : 3
Format : UTF-8
Codec ID : S_TEXT/UTF8
Codec ID/Info : UTF-8 Plain Text
Duration : 50 min 56 s
Bit rate : 24 b/s
Count of elements : 333
Stream size : 8.99 KiB (0%)
Language : English
Default : No
Forced : No


Text #2
ID : 4
Format : UTF-8
Codec ID : S_TEXT/UTF8
Codec ID/Info : UTF-8 Plain Text
Duration : 51 min 9 s
Bit rate : 32 b/s
Count of elements : 514
Stream size : 12.3 KiB (0%)
Title : SDH
Language : English
Default : No
Forced : No


Menu
00:00:00.000 : Studio Logo
00:00:01.000 : Previously On
00:01:51.000 : Opening Credits
00:02:23.000 : Title Sequence
00:02:27.000 : Scene 5
00:03:47.000 : Scene 6
00:19:26.000 : Scene 7
00:42:37.000 : Scene 8
00:51:22.000 : End Credits


蓝光高清网提示您  点击下方附件名称  马上开始下载

世界大战 / 地球人大战火星人/世界之战4k War.Of.The.Worlds.2019.S01.2160p.WEB-DL.DDP5.1.x265-美剧下载

世界之战4k War.Of.The.Worlds.2019.S01.2160p.WEB-DL.DDP5.1.x265【36.07 GB】
世界之战4k War.Of.The.Worlds.2019.S01.2160p.WEB-DL.DDP5.1.x265-FLUX.torrent (大小:46.39 KB)



加入蓝光高清网VIP会员  无限制下载本站所有资源---点这里

资源下载、资源播放、字幕使用、无法下载等常见问题---点这里
回复

使用道具 举报

您需要登录后才可以回帖 登录 | 立即注册

本版积分规则

烧友之家(蓝光高清网)本站内容部分由用户自主分享和转载自互联网,转载目的在于传递更多信息,并不代表本网赞同其观点和对其真实性负责。 如有侵权、违反国家法律政策行为,请联系我们,我们会第一时间及时清除和处理!
蓝光高清网 综合资讯平台
关注我们
  • 官方微信公众号
  • 扫码下载官方APP

X3.4 Licensed© 2001-2013 蓝光高清网 烧友之家APP |网站地图