游客您好
第三方账号登陆
  • 点击联系客服

    在线时间:9:00-18:00

    客服QQ

    1371333023

    电子邮件

    lanniao@1080pro.net
  • 烧友之家APP

    随时掌握烧友资讯

  • 扫描二维码

    关注微信公众号

推荐阅读
蓝鸟
未知星球 | 未知职业
  • 关注0
  • 粉丝2
  • 帖子95993
精选帖子
开启左侧

[4K高清美剧] 秃鹰 第一季4k Condor.S01.2160p.WEB-DL.DDP5.1.x265-4k美剧下载—42.96 GB

[复制链接]
蓝鸟 发表于 2021-10-10 12:31:35 | 显示全部楼层 |阅读模式 打印 上一主题 下一主题
秃鹰

状态:第一季(完结)
上映时间:2018-06-06
类型:惊悚 犯罪 悬疑 
地区:美国
导演:劳伦斯·特里林 / 安德鲁·麦卡锡
主演:马克斯·艾恩斯 / 布兰登·费舍 / 凯瑟琳·坎宁安 / 米拉·索维诺 / 威廉·赫特
画质标准:4K(3840x2160) 封装音轨:MKV 音轨编码:其他DD
豆瓣评分:7.7分
剧情简介
  Max Irons以主演加盟Audience Network直接预订10集的《秃鹰 Condor》,该剧根据1975年的政治惊悚片《秃鹰七十二小时 Three Days of the Condor》所改篇。Max Irons将饰演Joe Turner,该角在电影中由Robert Redford饰演。
  剧集版由Jason Smilovic及Todd Katzberg执笔,讲述年轻的CIA分析员Joe Turner,他的理想主义在一个恐怖﹑天才﹑能威胁到数百万条人命的计划前受到考验。Joe Turner是个理想主义的千禧一代,他秘密加入CIA,希望能从内部改革。但是当办公室所有人都被职业杀手所杀后,他被迫离开象牙塔,并进入这场危险的战争中。如果要生存下去,他得做出过去从未想象过能做到的事,并且要理解到自己真正性格....
影片参数
秃鹰 第一季4k Condor.S01.2160p.WEB-DL.DDP5.1.x265-4k美剧信息
Video
ID : 1
Format : HEVC
Format/Info : High Efficiency Video Coding
Format profile : Main 10@L5@High
Codec ID : V_MPEGH/ISO/HEVC
Duration : 53 min 40 s
Bit rate : 11.9 Mb/s
Width : 3 840 pixels
Height : 1 920 pixels
Display aspect ratio : 2.000
Frame rate mode : Constant
Frame rate : 23.976 FPS
Color space : YUV
Chroma subsampling : 4:2:0
Bit depth : 10 bits
Bits/(Pixel*Frame) : 0.067
Stream size : 4.45 GiB (95%)
Default : Yes
Forced : No
Color range : Limited
Color primaries : BT.709
Transfer characteristics : BT.709
Matrix coefficients : BT.709


Audio
ID : 2
Format : E-AC-3
Format/Info : Enhanced AC-3
Commercial name : Dolby Digital Plus
Codec ID : A_EAC3
Duration : 53 min 40 s
Bit rate mode : Constant
Bit rate : 640 kb/s
Channel(s) : 6 channels
Channel layout : L R C LFE Ls Rs
Sampling rate : 48.0 kHz
Frame rate : 31.250 FPS (1536 SPF)
Compression mode : Lossy
Stream size : 246 MiB (5%)
Language : English
Service kind : Complete Main
Default : Yes
Forced : No


Text #1
ID : 3
Format : UTF-8
Codec ID : S_TEXT/UTF8
Codec ID/Info : UTF-8 Plain Text
Duration : 49 min 23 s
Bit rate : 72 b/s
Count of elements : 830
Stream size : 26.3 KiB (0%)
Language : English
Default : No
Forced : No


Text #2
ID : 4
Format : UTF-8
Codec ID : S_TEXT/UTF8
Codec ID/Info : UTF-8 Plain Text
Duration : 51 min 33 s
Bit rate : 75 b/s
Count of elements : 907
Stream size : 28.5 KiB (0%)
Title : SDH
Language : English
Default : No
Forced : No


Menu
00:00:00.000 : Studio Logo
00:00:01.000 : Title Sequence
00:00:28.000 : Scene 3
00:04:17.000 : Scene 4
00:13:34.000 : Scene 5
00:19:46.000 : Scene 6
00:28:25.000 : Scene 7
00:34:29.000 : Scene 8
00:43:37.000 : Scene 9
00:51:32.000 : End Credits


蓝光高清网提示您  点击下方附件名称  马上开始下载


秃鹰 第一季4k Condor.S01.2160p.WEB-DL.DDP5.1.x265-4k美下载


秃鹰 第一季4k Condor.S01.2160p.WEB-DL.DDP5.1.x265【42.96 GB】

秃鹰 第一季4k Condor.S01.2160p.WEB-DL.DDP5.1.x265-FLUX.torrent (大小:55.02 KB)
加入蓝光高清网VIP会员  无限制下载本站所有资源---点这里

资源下载、资源播放、字幕使用、无法下载等常见问题---点这里
回复

使用道具 举报

精彩评论3

皓月923手机认证 发表于 2021-10-10 19:15:00 | 显示全部楼层
好片,谢谢发布,等待中
回复 支持 反对

使用道具 举报

ggang1 发表于 2021-10-11 10:14:17 | 显示全部楼层
谢楼主的精彩分享!
回复 支持 反对

使用道具 举报

坐地巡天 发表于 6 天前 | 显示全部楼层
谢楼主的 分享
回复 支持 反对

使用道具 举报

您需要登录后才可以回帖 登录 | 立即注册

本版积分规则

烧友之家(蓝光高清网)本站内容部分由用户自主分享和转载自互联网,转载目的在于传递更多信息,并不代表本网赞同其观点和对其真实性负责。 如有侵权、违反国家法律政策行为,请联系我们,我们会第一时间及时清除和处理!
蓝光高清网 综合资讯平台
关注我们
  • 官方微信公众号
  • 扫码下载官方APP

X3.4 Licensed© 2001-2013 蓝光高清网 烧友之家APP |网站地图