游客您好
第三方账号登陆
  • 点击联系客服

    在线时间:9:00-18:00

    客服QQ

    1371333023

    电子邮件

    lanniao@1080pro.net
  • 烧友之家APP

    随时掌握烧友资讯

  • 扫描二维码

    关注微信公众号

推荐阅读
蓝鸟
未知星球 | 未知职业
  • 关注0
  • 粉丝2
  • 帖子95993
精选帖子
开启左侧

[4K高清美剧] 海豹突击队 第五季4k SEAL.Team.S05E01.HDR.2160p.WEB.H265-4k美剧下载—4.42 GB

[复制链接]
蓝鸟 发表于 2021-10-12 12:57:27 | 显示全部楼层 |阅读模式 打印 上一主题 下一主题
海豹突击队

状态:第5季(更新至第1集)
上映时间:2021-10-10
类型:动作 剧情 战争 
地区:美国
导演:克里斯托弗·查莱克 / J·迈克尔·穆罗 / 大卫·伯伦纳兹
主演:大卫·伯伦纳兹 / 麦克斯·泰瑞奥 / 杰西卡·帕尔 / 小尼尔·布朗 / A·J·巴克利
画质标准:4K(3840x2160) 封装音轨:MKV 音轨编码:其他DD
豆瓣评分:8.9分
剧情简介
  《#海豹突击队# SEAL Team》正式续订第五季。今年稍晚回归时,会先在CBS做特别播出,随后移至新家Paramount+独家上线....
影片参数
海豹突击队 第五季4k SEAL.Team.S05E01.HDR.2160p.WEB.H265-4k美剧信息
Video
ID : 1
Format : HEVC
Format/Info : High Efficiency Video Coding
Format profile : Main 10@L5@High
HDR format : SMPTE ST 2094 App 4, Version 1, HDR10+ Profile B compatible
Codec ID : V_MPEGH/ISO/HEVC
Duration : 43 min 24 s
Bit rate : 14.1 Mb/s
Width : 3 840 pixels
Height : 2 160 pixels
Display aspect ratio : 16:9
Frame rate mode : Constant
Frame rate : 23.976 (24000/1001) FPS
Color space : YUV
Chroma subsampling : 4:2:0 (Type 2)
Bit depth : 10 bits
Bits/(Pixel*Frame) : 0.071
Stream size : 4.28 GiB (97%)
Default : Yes
Forced : No
Color range : Full
Color primaries : BT.2020
Transfer characteristics : PQ
Matrix coefficients : BT.2020 non-constant
Mastering display color primaries : Display P3
Mastering display luminance : min: 0.0001 cd/m2, max: 1000 cd/m2
Maximum Content Light Level : 386 cd/m2
Maximum Frame-Average Light Level : 18 cd/m2


Audio
ID : 2
Format : E-AC-3
Format/Info : Enhanced AC-3
Commercial name : Dolby Digital Plus
Codec ID : A_EAC3
Duration : 43 min 24 s
Bit rate mode : Constant
Bit rate : 192 kb/s
Channel(s) : 6 channels
Channel layout : L R C LFE Ls Rs
Sampling rate : 48.0 kHz
Frame rate : 31.250 FPS (1536 SPF)
Compression mode : Lossy
Stream size : 59.6 MiB (1%)
Language : English
Service kind : Complete Main
Default : Yes
Forced : No


Text
ID : 3
Format : UTF-8
Codec ID : S_TEXT/UTF8
Codec ID/Info : UTF-8 Plain Text
Title : English
Language : English
Default : No
Forced : No


蓝光高清网提示您  点击下方附件名称即可开始下载


海豹突击队 第五季4k SEAL.Team.S05E01.HDR.2160p.WEB.H265-4k美剧下载


海豹突击队 第五季4k SEAL.Team.S05E01.HDR.2160p.WEB.H265【4.42 GB】

海豹突击队 第五季4k SEAL.Team.S05E01.HDR.2160p.WEB.H265-GGEZ.torrent (大小:22.84 KB)
加入蓝光高清网VIP会员  无限制下载本站所有资源---点这里

资源下载、资源播放、字幕使用、无法下载等常见问题---点这里
回复

使用道具 举报

您需要登录后才可以回帖 登录 | 立即注册

本版积分规则

烧友之家(蓝光高清网)本站内容部分由用户自主分享和转载自互联网,转载目的在于传递更多信息,并不代表本网赞同其观点和对其真实性负责。 如有侵权、违反国家法律政策行为,请联系我们,我们会第一时间及时清除和处理!
蓝光高清网 综合资讯平台
关注我们
  • 官方微信公众号
  • 扫码下载官方APP

X3.4 Licensed© 2001-2013 蓝光高清网 烧友之家APP |网站地图