游客您好
第三方账号登陆
  • 点击联系客服

    在线时间:9:00-18:00

    客服QQ

    1371333023

    电子邮件

    lanniao@1080pro.net
  • 烧友之家APP

    随时掌握烧友资讯

  • 扫描二维码

    关注微信公众号

推荐阅读
蓝鸟
未知星球 | 未知职业
  • 关注0
  • 粉丝2
  • 帖子95993
精选帖子
开启左侧

Muppets.Haunted.Mansion.2021.2160p.WEB-DL.x265.8bit.SDR.DDP5.1-电影下载—6.97GB

[复制链接]
蓝鸟 发表于 2021-10-13 09:49:22 | 显示全部楼层 |阅读模式 打印 上一主题 下一主题
Muppets Haunted Mansion
上映时间:2021年
类型:喜剧 奇幻 家庭 
地区:美国 
导演:克里克·B·R·沃勒尔
主演:威尔·阿奈特 爱德华·阿斯纳
画质标准:4K  封装音轨:DTS-HD.MA 5.1 
豆瓣评分:
简       介  e, J9 N: s" A) }; y" `
9 |0 V: \, A) ^% V, W! h- e
  On Halloween night, Gonzo is challenged to spend one night in The Haunted Mansion.
+ [. D8 F( L% K. \! z. V1 p

6 ]4 _% c: |8 V- V" G影片参数- W; P# ]/ Q9 g/ }! B+ e
Muppets.Haunted.Mansion.2021.2160p.WEB-DL.x265.8bit.SDR.DDP5.1-电影信息6 ~5 o4 X+ k; H+ I! L2 y
Video6 h  e: U+ n# f. w* V
ID : 1
5 m, x! m" v  q) `8 v! Q$ G: p( C8 KFormat : HEVC
/ b; z& A+ j: ~/ Q5 oFormat/Info : High Efficiency Video Coding
$ W! A* C9 C4 d* @Format profile : Main@L5@High
& _" K3 {, \! I" `/ ECodec ID : V_MPEGH/ISO/HEVC' A* w* _/ k: z7 ]5 o3 W+ a
Duration : 49 min 50 s
. l6 a) G' A; r  O2 \% u" NBit rate : 19.8 Mb/s
' |; Y! h; B$ K7 ~6 H, RWidth : 3 840 pixels
* n  ?( |. a3 c6 |  X, zHeight : 2 160 pixels4 d2 p/ i0 T- ~; \9 s/ s
Display aspect ratio : 16:9
! c$ y# X9 x% o: A6 ~Frame rate mode : Constant2 n: Y. |9 f# ?" X
Frame rate : 23.976 (24000/1001) FPS
/ c/ L, k5 U2 n3 s' S! @7 N0 _Color space : YUV
: \* d2 @1 J# s' w/ \# P" R' d: ]0 nChroma subsampling : 4:2:0
( d" m- X" N; j' ]# {4 S9 mBit depth : 8 bits  S* K) R% w) }' f' H4 _1 u
Bits/(Pixel*Frame) : 0.099, ]. l1 ?7 z, Y  }
Stream size : 6.88 GiB (99%)6 e8 e" B. ~* W
Writing library : x265 3.5:[Linux][GCC 7.5.0][64 bit] 8bit+10bit+12bit
- A8 G; d$ U* k! }% c2 {) eEncoding settings : cpuid=1111039 / frame-threads=1 / wpp / no-pmode / no-pme / no-psnr / no-ssim / log-level=2 / input-csp=1 / input-res=3840x2160 / interlace=0 / total-frames=0 / level-idc=50 / high-tier=1 / uhd-bd=0 / ref=2 / no-allow-non-conformance / repeat-headers / annexb / no-aud / no-hrd / info / hash=0 / no-temporal-layers / no-open-gop / min-keyint=48 / keyint=48 / gop-lookahead=0 / bframes=4 / b-adapt=0 / b-pyramid / bframe-bias=0 / rc-lookahead=48 / lookahead-slices=8 / scenecut=0 / hist-scenecut=0 / radl=0 / splice / no-intra-refresh / ctu=32 / min-cu-size=8 / no-rect / no-amp / max-tu-size=16 / tu-inter-depth=2 / tu-intra-depth=2 / limit-tu=0 / rdoq-level=1 / dynamic-rd=0.00 / no-ssim-rd / signhide / no-tskip / nr-intra=0 / nr-inter=0 / no-constrained-intra / no-strong-intra-smoothing / max-merge=3 / limit-refs=1 / no-limit-modes / me=1 / subme=2 / merange=44 / temporal-mvp / no-frame-dup / no-hme / weightp / no-weightb / no-analyze-src-pics / deblock=0:0 / no-sao / no-sao-non-deblock / rd=4 / selective-sao=0 / early-skip / rskip / no-fast-intra / no-tskip-fast / no-cu-lossless / b-intra / no-splitrd-skip / rdpenalty=1 / psy-rd=1.60 / psy-rdoq=5.00 / no-rd-refine / no-lossless / cbqpoffs=0 / crqpoffs=0 / rc=abr / bitrate=20000 / qcomp=0.75 / qpstep=4 / stats-write=0 / stats-read=0 / vbv-maxrate=24000 / vbv-bufsize=40000 / vbv-init=0.9 / ipratio=1.40 / pbratio=1.30 / aq-mode=3 / aq-strength=1.00 / no-cutree / zone-count=0 / no-strict-cbr / qg-size=32 / no-rc-grain / qpmax=69 / qpmin=0 / no-const-vbv / sar=1 / overscan=0 / videoformat=5 / range=0 / colorprim=1 / transfer=1 / colormatrix=1 / chromaloc=0 / display-window=0 / cll=0,0 / min-luma=0 / max-luma=255 / log2-max-poc-lsb=8 / vui-timing-info / vui-hrd-info / slices=1 / no-opt-qp-pps / no-opt-ref-list-length-pps / no-multi-pass-opt-rps / scenecut-bias=0.00 / hist-threshold=0.01 / no-opt-cu-delta-qp / no-aq-motion / no-hdr10 / no-hdr10-opt / no-dhdr10-opt / no-idr-recovery-sei / analysis-reuse-level=0 / analysis-save-reuse-level=0 / analysis-load-reuse-level=0 / scale-factor=0 / refine-intra=0 / refine-inter=0 / refine-mv=1 / refine-ctu-distortion=0 / no-limit-sao / ctu-info=0 / no-lowpass-dct / refine-analysis-type=0 / copy-pic=1 / max-ausize-factor=1.0 / no-dynamic-refine / no-single-sei / no-hevc-aq / no-svt / no-field / qp-adaptation-range=1.00 / no-scenecut-aware-qpconformance-window-offsets / right=0 / bottom=01 ]  k( b" h: R0 p
Default : Yes
6 B* D  ^4 X+ r; H3 QForced : No+ T2 Z9 I- k' n0 b
Color range : Limited
( s3 i" m8 W  ?2 WColor primaries : BT.7094 t# Y0 E! `, w# v  K: i
Transfer characteristics : BT.709
& U' @& p, R0 M# M0 x6 I/ SMatrix coefficients : BT.709
4 [- @( Z: x7 v% l% f( I" e$ y
9 J; V' k$ D* t
! f1 D4 J' a, I* b8 M
Audio" Z5 Q+ J& o/ S% h- w" [$ ]
ID : 2
- ?5 p  D$ q# I; C' bFormat : E-AC-3
, O( `% ^- s+ b- |Format/Info : Enhanced AC-3
+ N  H$ T+ n/ ]. i, PCommercial name : Dolby Digital Plus
1 L; b9 {& y. y7 O' ^8 G9 L# wCodec ID : A_EAC3
- W0 }2 z4 }$ I* F( f& QDuration : 49 min 51 s
+ t* R3 s# h5 ~' }: oBit rate mode : Constant" x- M/ t" W# D$ j0 P
Bit rate : 256 kb/s/ O# u/ {0 A7 s% P) F! l8 U6 d
Channel(s) : 6 channels0 H0 w+ \8 k# R  f0 Q
Channel layout : L R C LFE Ls Rs) t( o6 M. U( J; t5 B$ L
Sampling rate : 48.0 kHz  o$ c& c. @/ K8 b
Frame rate : 31.250 FPS (1536 SPF)* L% ?2 r4 h( T! f0 y
Compression mode : Lossy5 D# L' U% E0 K. \6 V* u6 ?
Delay relative to video : -2 ms
, K7 V3 ]6 W& s- NStream size : 91.3 MiB (1%)
5 O$ Y3 \+ H# @: h: Y/ @Language : English; K4 h. y0 h9 p1 }8 a
Service kind : Complete Main# N% c4 S/ B- X* b9 O
Default : Yes" |% ?; z( k' ]  H$ c! R" M. X7 U1 i
Forced : No
$ X1 o" i) w/ D
蓝光高清网提示您  点击下方附件名称  即可开始下载
2 y1 k& b' ]! v8 S) p( o, H6 C  B( {
Muppets.Haunted.Mansion.2021.2160p.WEB-DL.x265.8bit.SDR.DDP5.1-电影下载- @) {' a5 W/ }
. i0 N6 h1 d2 j9 \* Y- Y
Muppets.Haunted.Mansion.2021.2160p.WEB-DL.x265.8bit.SDR.DDP5.1【4k SDR 6.97 GB】
! Y/ K5 Q( c" E5 O Muppets.Haunted.Mansion.2021.2160p.WEB-DL.x265.8bit.SDR.DDP5.1-TEPES.torrent (大小:18.08 KB)
# a: G. n' M0 X* H7 P
加入蓝光高清网VIP会员  无限制下载本站所有资源---点这里

资源下载、资源播放、字幕使用、无法下载等常见问题---点这里
回复

使用道具 举报

精彩评论1

a62884788手机认证 发表于 2021-10-13 23:53:25 来自手机 | 显示全部楼层
感谢楼主分享
回复 支持 反对

使用道具 举报

您需要登录后才可以回帖 登录 | 立即注册

本版积分规则

烧友之家(蓝光高清网)本站内容部分由用户自主分享和转载自互联网,转载目的在于传递更多信息,并不代表本网赞同其观点和对其真实性负责。 如有侵权、违反国家法律政策行为,请联系我们,我们会第一时间及时清除和处理!
蓝光高清网 综合资讯平台
关注我们
  • 官方微信公众号
  • 扫码下载官方APP

X3.4 Licensed© 2001-2013 蓝光高清网 烧友之家APP |网站地图