游客您好
第三方账号登陆
  • 客服在线时间

    周一至周五 8:30-17:30
  • 烧友之家APP

    随时掌握烧友资讯

  • 扫描二维码

    关注微信公众号

推荐阅读
蓝鸟
未知星球 | 未知职业
  • 关注0
  • 粉丝2
  • 帖子96539
精选帖子
开启左侧

不义联盟 4k Injustice.2021.2160p.WEB-DL.x265.10bit.HDR.DTS-HD.MA.5.1-4k电影下载—9.37 GB

[复制链接]
蓝鸟 发表于 2021-10-20 10:29:12 | 显示全部楼层 |阅读模式 打印 上一主题 下一主题
不义联盟
上映时间:2021年
类型:剧情 奇幻 冒险 
地区:美国 
导演:Matt Peters
主演:贾斯汀·哈特雷 / 安松·蒙特 / 劳拉·贝莉 / 扎克·卡利森 / 布莱恩·T·德莱尼
画质标准:4K HDR  封装音轨:DTS-HD.MA 5.1 
豆瓣评分:4.4分
简       介% c# i) ~3 U" x2 Y& F
3 O3 y( s; F; t6 `! O% v8 v0 u8 S5 h
# {0 s& n3 P8 ]' j! l" T
  华纳家庭娱乐将打造根据游戏《不义联盟:人间之神》(Injustice: Gods Among Us)改编的动画影片。华纳在[蝙蝠侠:漫长的万圣节(下)]新闻稿中透露,其在8月10日发行的蓝光光碟中将包括这部游改动画影片的预告。该片具体细节暂未知。原版游戏讲述在杀死小丑之后,超人又继续处决罪犯,他变得越来越腐败。五年后,超人成立了“一个地球政权”,以维护全球和平,但以蝙蝠侠为首的许多DC超级英雄联合起来,反对该政权。
. ^3 F$ L  U2 m4 l& s: d
' @8 [9 W9 t! i# L$ O9 h/ n* E
5 e7 B. x3 U4 [  [# f8 e. t# N6 b
影片参数9 A/ X" n6 m) q; Q. q& Q( M
不义联盟4k Injustice.2021.2160p.WEB-DL.x265.10bit.HDR.DTS-HD.MA.5.1-4k电影信息
8 x, L0 e& {1 x6 ~# _, B# }Video
7 D  d. n1 M4 r1 s; \5 }; eID : 1
8 L5 P( X% @; M3 B: L# a& c% DFormat : HEVC! j0 n) |3 [  ?/ e* {
Format/Info : High Efficiency Video Coding
! X3 n$ ]* b% S/ ]) aFormat profile : Main 10@L5@High
+ g; a8 i# D# u/ x' ?- D' uHDR format : SMPTE ST 2086, HDR10 compatible* n8 j# F" j6 ~. q
Codec ID : V_MPEGH/ISO/HEVC
0 d- \8 n3 ~/ Q5 GDuration : 1 h 18 min
% ]% _) e3 k) D2 KBit rate : 14.3 Mb/s
' z, w1 K$ E* Q& ?& [Width : 3 840 pixels/ L, p1 X5 ^5 x; B% N
Height : 2 160 pixels% K2 q/ r$ m! I( N2 k2 {
Display aspect ratio : 16:9
2 R( _4 J6 S& O# jFrame rate mode : Constant
% m+ b6 f2 N+ K0 }% ]0 r% CFrame rate : 23.976 FPS4 L0 |& X! X0 N5 {
Color space : YUV  g5 J: n5 a9 C. W% R
Chroma subsampling : 4:2:0 (Type 2)
0 v* T2 z6 W% Z8 fBit depth : 10 bits
/ I9 o. I0 |& ^Bits/(Pixel*Frame) : 0.072
5 A3 B4 O3 F0 |( N+ JStream size : 7.83 GiB (84%)0 r: q+ h( b3 X! t
Default : Yes; e8 Z4 C+ h' M- c
Forced : No9 V% J* G7 B9 ]& Y6 v# E7 [, t
Color range : Limited
7 l) I5 x. C9 a# z' VColor primaries : BT.2020
) d! M: ]- s; C7 F' A3 \Transfer characteristics : PQ1 I- O7 O" ?/ I2 k5 ]
Matrix coefficients : BT.2020 non-constant* B2 T( Q: o2 v
Mastering display color primaries : BT.2020
; X! Z, C% k" CMastering display luminance : min: 0.0050 cd/m2, max: 1000 cd/m2
! }3 m6 o2 y2 I" cMaximum Content Light Level : 1932 cd/m2+ t! p# m$ q4 Y
Maximum Frame-Average Light Level : 1865 cd/m23 E2 Y9 O3 q2 }. D3 G7 S' m* o

6 N( ~* }7 K( j2 q8 m- b8 q( a

( p, m0 I, z; m2 JAudio #1
0 M% [0 g: `3 T6 LID : 2! Q4 W8 }* w& y( D" h6 m  A# d
Format : DTS XLL+ @: a: y4 [: V/ t- o; H" k. |
Format/Info : Digital Theater Systems
4 x; Z1 w* B1 q5 ?Commercial name : DTS-HD Master Audio5 ?* s7 U0 l9 Y9 f' E$ o
Codec ID : A_DTS
3 J) L4 v6 z: k8 H( z! NDuration : 1 h 18 min
5 O' B& y0 d7 S/ P0 \6 E$ uBit rate mode : Variable0 b, E. _; [" L# p
Bit rate : 2 289 kb/s3 G9 }9 _3 }8 O0 M$ e7 X
Channel(s) : 6 channels7 j' r' q* O" w9 @( S: K/ P
Channel layout : C L R Ls Rs LFE( _7 y7 L. i' P' j8 N6 M5 W% f
Sampling rate : 48.0 kHz! D) h3 c# l# a0 M0 z3 M
Frame rate : 93.750 FPS (512 SPF)
3 r' X# o( o# V0 \+ aBit depth : 24 bits5 `5 D4 k' v9 h: a) ^$ e
Compression mode : Lossless
; u4 d( ?% \$ X- _4 _/ Y. NDelay relative to video : 2 ms7 ]9 A1 k6 I" c2 x3 C) s5 |+ w  c* m
Stream size : 1.26 GiB (13%)
! Q; \" w, v8 xTitle : DTS-HD MA 5.1* R0 I9 Y' `0 p7 t0 I
Language : English. r! d$ j; o  F$ R$ f3 Z
Default : Yes) b* a4 A: m' K. M- S
Forced : No
6 q( z! d/ ^2 Y, C: w* j) W
6 l/ K, ~3 v: ?2 b
6 q5 s! [5 L' I: E
Audio #2
0 T) M# K9 {. ~& ~6 f# wID : 3
! Y. k* Q9 l5 S1 vFormat : AC-3) ]/ k: c- C6 {& \
Format/Info : Audio Coding 3
  n& G* T$ ?4 N' f& E0 k9 @, }Commercial name : Dolby Digital
. B0 e5 Q0 s7 z0 y  R& R8 G& s- ^Codec ID : A_AC38 t! v  o+ |# [) W( t
Duration : 1 h 18 min
; x3 k. Y  q& X3 V6 p" s. o8 Z; jBit rate mode : Constant
7 m- B( H  X3 _, O9 e( J4 m! iBit rate : 384 kb/s
& S0 {# m) s% \$ _$ z2 OChannel(s) : 6 channels
+ Z1 y: S( p! [  o  B% J  Q5 SChannel layout : L R C LFE Ls Rs6 b  j6 Z6 l% Z' C" `' r- s& u/ N) r; A
Sampling rate : 48.0 kHz5 W$ r& A* L+ S8 A
Frame rate : 31.250 FPS (1536 SPF)
. o4 d3 F! t+ @" G3 {* KCompression mode : Lossy9 }' o7 X# q( l4 d
Stream size : 216 MiB (2%)- Q2 B# Z+ I- q0 O- w  L+ E! j
Title : DD 5.1( }' u$ |- g1 |/ N" O
Language : English
1 J) Y5 I2 L, H: t4 n* k' ]Service kind : Complete Main
5 N1 a: q) G5 F! ~3 Y4 n8 aDefault : No
$ ^* Y! y2 M7 Y, p7 l$ zForced : No
) L8 N0 v9 Y- f2 R6 _8 [8 D! _$ J3 i- t  y7 e" y4 x" F

- T- z9 U3 |9 z; ~* zText #1- a2 I9 Q: E9 I/ u1 w" D
ID : 4
+ P! p7 D6 P6 L, [5 J& MFormat : UTF-8
7 b: u' y4 l' A/ Q) w6 v0 z! iCodec ID : S_TEXT/UTF8
7 E, M! c# U9 a( l2 T1 dCodec ID/Info : UTF-8 Plain Text
0 h0 F" w1 T% U( F" `- }: iDuration : 1 h 14 min& G$ n: T2 W$ o+ z& |
Bit rate : 57 b/s
' i" d1 [& j! F2 |3 qCount of elements : 1120/ f7 K8 ]4 q1 @: f: d$ z) G
Stream size : 31.4 KiB (0%)
# v' M% \+ L- T  o' }$ h# yTitle : SRT
! [7 W& S( P% w8 X  ^( W. jLanguage : English( o3 [' ?" n9 }1 @
Default : Yes  D' H0 P8 d0 Q8 }( ^* O
Forced : No5 B0 S6 t1 Y6 \
- G! Z3 @! ^$ q2 L
/ t  H+ x; s# l% ~7 X( z  C" Q
Text #2# k: O3 X8 {6 \
ID : 5
5 E: o2 }  O& |( T% P9 \Format : PGS
* B$ j4 P2 i. P5 f3 d2 ^# A! PMuxing mode : zlib
2 n; X% B0 F+ qCodec ID : S_HDMV/PGS2 m7 ]! G; _& X
Codec ID/Info : Picture based subtitle format used on BDs/HD-DVDs
% v, B/ I2 ]" C0 a- C  v  KDuration : 1 h 14 min
; q% ~8 A# r. d' q$ x) W& cBit rate : 41.6 kb/s) l  W/ s# A* ?" p
Count of elements : 2618
8 b/ o" m& l; m7 n4 |$ yStream size : 22.3 MiB (0%)
2 L* \4 S: K% W, FTitle : SDH
9 a, k7 m" E: ~) f" zLanguage : English
5 q% n% P- z8 i3 CDefault : No& ?5 f, W7 Z) w; ~
Forced : No5 ?: u! N3 D3 Y3 ^5 e
2 X6 ]& g+ F. @6 I6 p* h  a
/ c5 B" B' \6 X. ]
Text #38 j8 c0 I6 X# }! S: y
ID : 6
8 q6 g  p  u' _! O" n" sFormat : PGS! _$ v8 G0 A/ P$ D
Muxing mode : zlib
1 K& P9 |/ ^6 T% U4 F) O; ZCodec ID : S_HDMV/PGS; T( b9 Y2 n' i0 M  l1 ?3 a
Codec ID/Info : Picture based subtitle format used on BDs/HD-DVDs
1 w' M" f6 P: |" SDuration : 1 h 17 min: W) U/ ~+ n( j' x" U! G  I
Bit rate : 34.2 kb/s( J/ h5 G' T9 w* K
Count of elements : 2244
. Y3 x2 I* }( ^4 d% q: c: tStream size : 18.9 MiB (0%)! F; R5 P6 g9 U3 l. k
Language : Danish
% {! G# v" h* x5 FDefault : No
' D' {6 n: D0 M& r$ dForced : No* d& t) ^+ ?- L3 Q6 B) `
" k. D! V( \  B
! M1 `& G( g0 G5 F7 B0 F4 E
Text #4% e  V3 }" P; e6 v' `! P* x
ID : 7. l) y; _2 m4 K5 i4 `
Format : PGS
9 q: i# f" D% Y# Q) L0 c3 {4 ~Muxing mode : zlib7 Q2 ~& R$ n" v- ^6 ?
Codec ID : S_HDMV/PGS0 y) G' H0 i% r) v; x& S0 I
Codec ID/Info : Picture based subtitle format used on BDs/HD-DVDs1 o4 O; A8 [. F! B6 W! C, K, g
Duration : 1 h 17 min
9 S0 V5 U" l" ~+ w0 L; PBit rate : 37.2 kb/s
2 c% O7 ^* A( k" WCount of elements : 2236& D9 @: }2 A/ B  S" o& @2 M
Stream size : 20.5 MiB (0%)
2 j2 w$ ]) {1 M- uLanguage : Dutch
' \) N( Q% n  @) }& ADefault : No
8 ?6 C: N3 T( o, W4 P5 S' I, p! ?Forced : No
3 s6 j1 f' w& P  w7 d+ ~5 x
9 H. t( \! [5 P/ S, K6 ]
0 G( L4 e1 b: {& l5 @; a  v! v
Text #5  b; C0 Q6 T) R% K3 M) G$ G
ID : 8
8 ~! k! C! @) _8 nFormat : PGS
: s/ p9 D  w4 p: B, |' oMuxing mode : zlib& C( q, [8 R. k( F
Codec ID : S_HDMV/PGS
3 |6 a7 u# {7 s+ i! G7 Q# {! ^4 mCodec ID/Info : Picture based subtitle format used on BDs/HD-DVDs" g7 w3 m8 z, Z3 q" F) N
Duration : 1 h 17 min
6 D7 C1 u, D* `$ X2 U' r6 MBit rate : 37.0 kb/s3 Y3 {' l) ~0 _0 T/ D8 R; P( @
Count of elements : 2246
* E9 j/ l7 r+ c& `, B: ]2 Z, Y: iStream size : 20.4 MiB (0%)
# i4 F# i/ `& P' X( H7 gLanguage : Finnish- Z# N; M4 {% s7 F" X4 A5 M8 G+ D
Default : No7 p8 V; t0 O& M5 M
Forced : No
& y2 t' f8 s, U$ _6 b9 q# L' ^- @3 F+ i

% E, B; ~- z' p# UText #65 ^; V: q, V# b) x) Y9 C- x
ID : 9
. B  \% }4 k9 S+ I) DFormat : PGS
  G0 p0 Z, Z8 ^& S( L) f6 WMuxing mode : zlib% T: p+ l! C( I/ `2 G4 w
Codec ID : S_HDMV/PGS6 Z$ d6 y, y. {% ?) S
Codec ID/Info : Picture based subtitle format used on BDs/HD-DVDs7 ^+ m4 U" ?% ~+ k& q3 y5 [
Duration : 1 h 17 min  l8 J$ Y3 D3 K+ E
Bit rate : 39.1 kb/s
) O8 i8 ?9 T+ A. c$ BCount of elements : 2238: m* U8 b; H+ J" _5 m' G
Stream size : 21.6 MiB (0%)- w0 q  Z% C& L- T
Language : French9 D+ W% a4 G$ S
Default : No; `, s3 h% c; e2 f  e
Forced : No/ U2 M) N' y/ \. r( B" C, w! J
% X/ R! [: [' T' B2 D

- _" T3 c& L2 e1 G% r) AText #7$ G4 i7 `, p( m! d5 a. P* D
ID : 10
2 u6 R$ V7 d: zFormat : PGS
- p1 @. o, ^  C& w1 [' W- WMuxing mode : zlib) I; p3 j3 V4 B% }; d( f% v
Codec ID : S_HDMV/PGS
7 l; a1 j* R. b6 A  {Codec ID/Info : Picture based subtitle format used on BDs/HD-DVDs# L5 C# |; N' D$ n! D
Duration : 1 h 14 min$ ^2 x# y4 [  v
Bit rate : 50.7 kb/s
' U8 R" J+ Z8 ^& Q* TCount of elements : 2678, i4 R; m/ d+ T% Z1 ?
Stream size : 27.2 MiB (0%)
. G) F7 _( _0 R; I4 LLanguage : German
6 a- a+ }5 V! uDefault : No
2 V9 u% [' }. t: b3 J$ KForced : No
4 Q; j$ h7 `8 y, y* Z, i* b# a; \7 h2 M! b0 K1 w4 V; z3 p3 {

' T5 u/ l6 I  Y  b4 rText #8( H3 ]% {/ G8 b: E! V7 j
ID : 11
* f+ v% |4 d! n) M3 m3 |0 CFormat : PGS' ?' X7 z2 s4 S7 e7 Y
Muxing mode : zlib
; }: n! T# [2 s0 v' kCodec ID : S_HDMV/PGS9 @; r, ?1 |3 @0 z: ^+ ^' S3 {
Codec ID/Info : Picture based subtitle format used on BDs/HD-DVDs" T7 r7 x, H" n5 `/ o
Duration : 1 h 15 min5 t3 x. I# v: c$ z. T+ ^/ u
Bit rate : 44.4 kb/s
( C" e6 ^9 y- ]4 D, T& s( _Count of elements : 26909 ^. h8 B$ `  A& h8 K* ^& o
Stream size : 23.8 MiB (0%). n0 E* x( ]- t  h6 x4 N3 @6 D
Language : Italian4 Z, s$ X* H& H9 Z/ P
Default : No
& A3 {% B' q5 Y2 e; gForced : No3 @3 F4 w/ L; R6 k; Y
" B) S$ k' F* V2 h
5 ]% n& B, U5 I) |0 T
Text #9
* K, R( v7 s$ ^* }6 B6 f( vID : 12
& i- d7 L: c$ H) h# t. DFormat : PGS
4 n! \( M+ f7 q; r) bMuxing mode : zlib
* `! c; ?  r; \" O! W" _& n( @Codec ID : S_HDMV/PGS4 p& T$ }! \9 R; J. J0 C1 l" J$ M
Codec ID/Info : Picture based subtitle format used on BDs/HD-DVDs: A( m! _$ H5 G' A
Duration : 1 h 17 min1 ?) O3 H% g3 k: p) k  d" \
Bit rate : 35.0 kb/s
7 r! M/ f7 ?# c5 mCount of elements : 2242) J) f' L! w% v4 q  f' q
Stream size : 19.3 MiB (0%)( O) C% U, r  [. E
Language : Norwegian( d% C' C. _+ P9 ]" c' x( {
Default : No0 h  Q* \4 {3 S2 @9 Z. }4 g& Y
Forced : No( ^( s+ W% T' S5 @1 e: o  P% k" y" K; j

1 S8 s0 ?8 G5 q% C, c4 D/ a
+ {$ \7 I2 G3 c+ ^# b
Text #10/ }; W6 B5 c* s
ID : 13, ^& r/ q4 S) d0 o/ J1 h# T
Format : PGS
  o8 W$ h  J2 v# \# j8 N* @1 eMuxing mode : zlib. J, z8 N: s+ n; W  g) _1 m7 D
Codec ID : S_HDMV/PGS
, e- {. q( H, d- ]$ _- vCodec ID/Info : Picture based subtitle format used on BDs/HD-DVDs& I# e3 E& `0 f5 g
Duration : 1 h 14 min( K5 C" q  t" K2 F; [5 }
Bit rate : 36.1 kb/s9 Y( n9 @1 a. n
Count of elements : 2142
3 _, I% h1 R1 A5 LStream size : 19.3 MiB (0%)
! I, E2 c: a' Q6 U2 `: y: _$ sLanguage : Spanish  O! g, m" F, \
Default : No
; A* M- f* p+ v7 ?: g/ uForced : No
8 p7 S! [) G8 x0 p
! o5 B: Q: N0 v2 [1 G  U- v
4 u; u9 ]% N/ s: G2 t- g
Text #11/ @1 t$ b& @$ o8 p
ID : 144 [% ~1 h. ?" a5 z% V+ ?& D% [3 J
Format : PGS2 V/ f, U0 s; }7 Q8 Q
Muxing mode : zlib& |/ w+ Y4 i7 _1 A9 [6 D
Codec ID : S_HDMV/PGS  Z( r) X, H3 L# i: {# G# f7 G6 t9 G
Codec ID/Info : Picture based subtitle format used on BDs/HD-DVDs' i4 v- c) }9 X  ?
Duration : 1 h 17 min. F# m  {2 @  D$ d9 E1 S/ G
Bit rate : 35.9 kb/s- T6 L2 J4 X9 N# E( _" Z- e7 q
Count of elements : 2246
' Y( V9 O# W8 j- X$ {Stream size : 19.8 MiB (0%)" k; c; |# p2 L1 w& Y; G5 \9 z* K
Language : Swedish
  a: I8 S  l+ w* x* A: x' j  s- lDefault : No/ T6 o4 J. Y- z
Forced : No
" {* k% o5 w% g# }$ I$ G$ f
4 X9 c+ a3 ]+ ^4 ?5 `; u

2 q: H# u! g* y1 DMenu
# h: k6 N; y) l, U/ W, b9 ~- w% T00:00:00.000 : en:Chapter 013 M% c$ ~& ?. y! L/ O. w
00:02:32.986 : en:Chapter 023 r  E4 n: z: p6 y8 L. {1 e) z9 y
00:11:20.430 : en:Chapter 03
8 Q% _3 n. s- @8 t00:18:43.956 : en:Chapter 04
. _/ [' x/ P5 u/ Y3 p4 t00:25:14.847 : en:Chapter 05
. u9 \! A. N4 L  y00:33:41.519 : en:Chapter 06
" V) H$ h) w: u. g  O0 w( a1 e00:43:12.465 : en:Chapter 07
; Q  ]+ C! A% [3 f3 \00:52:17.092 : en:Chapter 08" Z/ `$ S2 k. o  H5 F/ n6 o
01:00:00.972 : en:Chapter 096 O1 ^( D, l( z( [# t
01:09:52.271 : en:Chapter 10
( ~# k9 ?3 h  _01:15:57.303 : en:Chapter 11

3 P. L8 G" L- d) d" p/ S  S
2 I/ f5 }/ h2 r/ ~- M' n蓝光高清网提示您  点击下方附件名称  马上开始下载; x: D+ I8 ~/ F) ]  j) D7 {2 V

- B# Z* Y- k% c8 Q  s

9 @0 d0 B/ G8 {+ ]% }  q/ s多版本下载时请注意区分! U5 A  F+ x% ]% G# o" R
, N1 B) K5 O: s; Z& S2 r$ @# f

7 @+ Y+ p/ f1 r) I1 Z3 |7 a不义联盟4k Injustice.2021.2160p.WEB-DL.x265.10bit.HDR.DTS-HD.MA.5.1-4k电影下载
/ b; Q  s& r. T4 M1 Z
6 x9 M9 t% S5 q! d不义联盟4k Injustice.2021.2160p.WEB-DL.x265.10bit.HDR.DTS-HD.MA.5.1【9.37 GB】! u* u1 t1 n$ k4 f) [* V
不义联盟4k Injustice.2021.2160p.WEB-DL.x265.10bit.HDR.DTS-HD.MA.5.1-SWTYBLZ.torrent (大小:24.06 KB) $ \- O  k8 A$ T, R# B( C4 e# N
* X3 E( l4 X9 Z# P. J
不义联盟4k Injustice.2021.2160p.WEB-DL.x265.10bit.SDR.DTS-HD.MA.5.1【7.92 GB】
2 F+ E% U: X4 Q$ E3 t: Y 不义联盟4k Injustice.2021.2160p.WEB-DL.x265.10bit.SDR.DTS-HD.MA.5.1-SWTYBLZ.torrent (大小:20.47 KB)
/ q, u3 W$ e6 E' ]; l
' S' u/ W8 V9 f5 w9 G8 N不义联盟 4k电影中文字幕下载
! F+ o5 H+ u2 w3 C/ l Injustice.2021.1080p.BluRay.x264.DTS-MT.zip (大小:42.15 KB) 9 z1 l+ O- L- S% T" V% `: D: F" N1 o

; N! E0 }$ z! v; E0 a& C5 d
参与人数 1活跃度 +5 收起 理由
慕容0 + 5

查看全部评分总评分 : 活跃度 +5

加入蓝光高清网VIP会员  无限制下载本站所有资源---点这里

资源下载、资源播放、字幕使用、无法下载等常见问题---点这里
回复

使用道具 举报

精彩评论4

ggang1 发表于 2021-10-20 14:08:45 | 显示全部楼层
謝版主的無私發佈
回复 支持 反对

使用道具 举报

4kprozf18h0FZ手机认证 发表于 2021-10-20 14:58:58 来自手机 | 显示全部楼层
第一次玩,还不是很明白
回复 支持 反对

使用道具 举报

ggang1 发表于 2021-10-22 11:26:50 | 显示全部楼层
谢无私分享精神!
回复 支持 反对

使用道具 举报

慕容0 发表于 2021-10-26 14:54:16 | 显示全部楼层
8 K0 Y' x' \' }1 @  W
谢无私分享精神
回复 支持 反对

使用道具 举报

您需要登录后才可以回帖 登录 | 立即注册

本版积分规则

烧友之家(蓝光高清网)本站内容部分由用户自主分享和转载自互联网,转载目的在于传递更多信息,并不代表本网赞同其观点和对其真实性负责。 如有侵权、违反国家法律政策行为,请联系我们,我们会第一时间及时清除和处理!
关注我们
  • 官方微信公众号
  • 扫码下载官方APP

X3.4 Licensed© 2001-2013 蓝光高清网 烧友之家APP |网站地图