游客您好
第三方账号登陆
  • 客服在线时间

    周一至周五 8:30-17:30
  • 烧友之家APP

    随时掌握烧友资讯

  • 扫描二维码

    关注微信公众号

推荐阅读
蓝鸟
未知星球 | 未知职业
  • 关注0
  • 粉丝2
  • 帖子96539
精选帖子
开启左侧

[动作片] 最后一个/最后一个男人 Last.Man.Down.2021.1080p.BluRay.REMUX.AVC.DTS-HD.MA.5.1-FGT 18.18GB

[复制链接]
蓝鸟 发表于 2021-10-20 19:02:42 | 显示全部楼层 |阅读模式 打印 上一主题 下一主题
image.png

◎译  名 最后一个/最后一个男人
◎片  名 Last Man Down
◎年  代 2021
◎产  地 瑞典,英国
◎类  别 动作
◎语  言 英语
◎上映日期 2021-10-19(美国)
◎豆瓣评分 4.0/10 from 260 users
◎编  剧 丹尼尔·斯蒂森 Daniel Stisen
◎主  演 丹尼尔·斯蒂森 Daniel Stisen
       斯坦尼斯拉夫·雅涅夫斯基 Stanislav Ianevski
       娜塔莎·迈尔兹 Natassia Malthe
       罗伯特·福林 Robert Follin
       迈克尔·比灵顿 Michael Billington
       卡米尔·雷米泽斯基 Kamil Lemieszewski
       萨姆·哈迪 Sam Hardy
◎标  签 动作 | 瑞典 | 2021 | 英国 | 暴力 | 犯罪 | 血腥 | 美国电影
◎简  介


  John Wood left the pieces of a broken civilisation behind, to go back to his roots in the woodland, after a virus pandemic struck the world. Residing in a simple cabin, he only wants peace and to live in harmony with nature. Coming from a long line of timber men, he joined the army and served as a soldier for many years. Rebelling against his superiors for killing civilians under martial law. John feels he got his own wife killed when saving hundreds of innocent civilians from certain death. His wife executed point blank as retribution for John's disobedience and supposed heroic acts. Now, a young woman named Maria Johnson has escaped a pandemic research lab. She's been part of experiments to find a cure for the still raging virus. Carrying the potential cure in her blood, she is hunted by profiteers and mercenaries who knows her secret. Coming upon John's cabin in the woods, Maria is instinctively taken into shelter by John. He wants her to recover fast and leave, but by learning her...
  1. Video
  2. ID                                       : 1
  3. ID in the original source medium         : 4113 (0x1011)
  4. Format                                   : AVC
  5. Format/Info                              : Advanced Video Codec
  6. Format profile                           : [email protected]
  7. Format settings                          : CABAC / 4 Ref Frames
  8. Format settings, CABAC                   : Yes
  9. Format settings, Reference frames        : 4 frames
  10. Codec ID                                 : V_MPEG4/ISO/AVC
  11. Duration                                 : 1 h 27 min
  12. Bit rate mode                            : Variable
  13. Bit rate                                 : 26.9 Mb/s
  14. Maximum bit rate                         : 28.0 Mb/s
  15. Width                                    : 1 920 pixels
  16. Height                                   : 1 080 pixels
  17. Display aspect ratio                     : 16:9
  18. Frame rate mode                          : Constant
  19. Frame rate                               : 23.976 (24000/1001/189150) FPS
  20. Color space                              : YUV
  21. Chroma subsampling                       : 4:2:0
  22. Bit depth                                : 8 bits
  23. Scan type                                : Progressive
  24. Bits/(Pixel*Frame)                       : 0.540
  25. Stream size                              : 16.5 GiB (91%)
  26. Language                                 : English
  27. Default                                  : No
  28. Forced                                   : No
  29. Original source medium                   : Blu-ray
  30. Audio #1
  31. ID                                       : 2
  32. ID in the original source medium         : 4352 (0x1100)
  33. Format                                   : DTS XLL
  34. Format/Info                              : Digital Theater Systems
  35. Commercial name                          : DTS-HD Master Audio
  36. Codec ID                                 : A_DTS
  37. Duration                                 : 1 h 27 min
  38. Bit rate mode                            : Variable
  39. Bit rate                                 : 2 383 kb/s
  40. Channel(s)                               : 6 channels
  41. Channel layout                           : C L R Ls Rs LFE
  42. Sampling rate                            : 48.0 kHz
  43. Frame rate                               : 93.750 FPS (512 SPF)
  44. Bit depth                                : 16 bits
  45. Compression mode                         : Lossless
  46. Stream size                              : 1.46 GiB (8%)
  47. Title                                    : DTS-HD MA 5.1
  48. Language                                 : English
  49. Default                                  : Yes
  50. Forced                                   : No
  51. Original source medium                   : Blu-ray
  52. Audio #2
  53. ID                                       : 3
  54. ID in the original source medium         : 4353 (0x1101)
  55. Format                                   : AC-3
  56. Format/Info                              : Audio Coding 3
  57. Commercial name                          : Dolby Digital
  58. Codec ID                                 : A_AC3
  59. Duration                                 : 1 h 27 min
  60. Bit rate mode                            : Constant
  61. Bit rate                                 : 384 kb/s
  62. Channel(s)                               : 2 channels
  63. Channel layout                           : L R
  64. Sampling rate                            : 48.0 kHz
  65. Frame rate                               : 31.250 FPS (1536 SPF)
  66. Compression mode                         : Lossy
  67. Stream size                              : 241 MiB (1%)
  68. Title                                    : DD 2.0
  69. Language                                 : English
  70. Service kind                             : Complete Main
  71. Default                                  : No
  72. Forced                                   : No
  73. Original source medium                   : Blu-ray
  74. Text #1
  75. ID                                       : 4
  76. Format                                   : UTF-8
  77. Codec ID                                 : S_TEXT/UTF8
  78. Codec ID/Info                            : UTF-8 Plain Text
  79. Duration                                 : 1 h 24 min
  80. Bit rate                                 : 22 b/s
  81. Count of elements                        : 624
  82. Stream size                              : 13.9 KiB (0%)
  83. Title                                    : SRT
  84. Language                                 : English
  85. Default                                  : Yes
  86. Forced                                   : No
  87. Text #2
  88. ID                                       : 5
  89. ID in the original source medium         : 4608 (0x1200)
  90. Format                                   : PGS
  91. Muxing mode                              : zlib
  92. Codec ID                                 : S_HDMV/PGS
  93. Codec ID/Info                            : Picture based subtitle format used on BDs/HD-DVDs
  94. Duration                                 : 1 h 24 min
  95. Bit rate                                 : 26.1 kb/s
  96. Count of elements                        : 2086
  97. Stream size                              : 15.8 MiB (0%)
  98. Language                                 : English
  99. Default                                  : No
  100. Forced                                   : No
  101. Original source medium                   : Blu-ray
  102. Menu
  103. 00:00:00.000                             : en:Chapter 01
  104. 00:09:48.546                             : en:Chapter 02
  105. 00:18:53.715                             : en:Chapter 03
  106. 00:27:09.461                             : en:Chapter 04
  107. 00:36:04.537                             : en:Chapter 05
  108. 00:45:36.734                             : en:Chapter 06
  109. 00:54:28.098                             : en:Chapter 07
  110. 01:02:37.712                             : en:Chapter 08
  111. 01:10:29.850                             : en:Chapter 09
  112. 01:19:50.702                             : en:Chapter 10
  113. 01:25:38.800                             : en:Chapter 11
复制代码

34780a2349da15770b430c4880ce06a3.png
cbd8b736ff11b63807014401390ccf02.png
f53b3e27497084ee8c2ca9832af94897.png

蓝光高清网提示您  点击下方附件名称  马上开始下载


最后一个/最后一个男人 Last.Man.Down.2021.1080p.BluRay.REMUX.AVC.DTS-HD.MA.5.1-FGT 18.18GB
Last.Man.Down.2021.1080p.BluRay.REMUX.AVC.DTS-HD.MA.5.1-FGT.torrent (大小:23.37 KB)
加入蓝光高清网VIP会员  无限制下载本站所有资源---点这里

资源下载、资源播放、字幕使用、无法下载等常见问题---点这里
回复

使用道具 举报

精彩评论1

slj602手机认证 发表于 2021-10-21 14:29:49 | 显示全部楼层
多谢楼主发帖
回复 支持 反对

使用道具 举报

您需要登录后才可以回帖 登录 | 立即注册

本版积分规则

烧友之家(蓝光高清网)本站内容部分由用户自主分享和转载自互联网,转载目的在于传递更多信息,并不代表本网赞同其观点和对其真实性负责。 如有侵权、违反国家法律政策行为,请联系我们,我们会第一时间及时清除和处理!
关注我们
  • 官方微信公众号
  • 扫码下载官方APP

X3.4 Licensed© 2001-2013 蓝光高清网 烧友之家APP |网站地图