游客您好
第三方账号登陆
  • 客服在线时间

    周一至周五 8:30-17:30
  • 烧友之家APP

    随时掌握烧友资讯

  • 扫描二维码

    关注微信公众号

推荐阅读
蓝鸟
未知星球 | 未知职业
  • 关注0
  • 粉丝2
  • 帖子96539
精选帖子
开启左侧

[动作片] 门徒 The.Protege.2021.1080p.US.BluRay.REMUX.AVC.DTS-HD.MA.TrueHD.7.1.Atmos-FGT 33.80GB

[复制链接]
蓝鸟 发表于 2021-10-20 19:04:12 | 显示全部楼层 |阅读模式 打印 上一主题 下一主题
image.png

◎译  名 门徒/The Asset/The Protege/刺客密令(台)/复仇杀姬(港)/有价之人/资产
◎片  名 The Protégé
◎年  代 2021
◎产  地 美国
◎类  别 动作 / 惊悚 / 犯罪
◎语  言 英语
◎上映日期 2021-08-20(美国)
◎豆瓣评分 5.7/10 from 3504 users
◎片  长 109分钟
◎导  演 马丁·坎贝尔 Martin Campbell
◎编  剧 理查德·温克 Richard Wenk
◎主  演 李美琪 Maggie Q
       迈克尔·基顿 Michael Keaton
       塞缪尔·杰克逊 Samuel L. Jackson
       大卫·瑞托 David Rintoul
       帕特里克·麦拉海德 Patrick Malahide
       雷·费隆 Ray Fearon
       奥利·普费弗 Ori Pfeffer
       罗伯特·帕特里克 Robert Patrick
       小弗洛林·皮尔斯齐 Florin Piersic Jr.
       杜铎·奇里拉 Tudor Chirila
       沃利扎·比尼夫 Velizar Binev
       乔治·皮斯特拉努 George Pistereanu
       伊娃·努金·索森 Eva Nugyen Thorsen
       亚历克斯·博尔达 Alex Bordea
       塔尼娅·凯勒 Tanja Keller
       塔伊·阿特沃尔 Taj Atwal
       卡罗琳·朗奎 Caroline Loncq
       丽琪达·卡里 Richenda Carey
       大卫·斯特恩 David Sterne
       杰克·德格斯 Jack Derges
       唐·迈克尔·保罗 Don Michael Paul
       叶卡捷琳娜·贝克 Ekaterina Baker
◎标  签 动作 | 杀手 | 美国 | 犯罪 | 2021 | 女性 | 惊悚 | 剧情
◎简  介


  故事围绕伦勃朗(基顿饰)和安娜(李美琪饰)展开,这两个世界上最顶级的杀手将揭露一段发生在越南的神秘往事。多年来,他们游遍全球来互相争夺最抢手的合同。但当安娜的导师穆迪(杰克逊饰)被谋杀时,她和伦勃朗必须结盟,返回越南追捕凶手。
  1. Video
  2. ID                                       : 1
  3. ID in the original source medium         : 4113 (0x1011)
  4. Format                                   : AVC
  5. Format/Info                              : Advanced Video Codec
  6. Format profile                           : [email protected]
  7. Format settings                          : CABAC / 4 Ref Frames
  8. Format settings, CABAC                   : Yes
  9. Format settings, Reference frames        : 4 frames
  10. Codec ID                                 : V_MPEG4/ISO/AVC
  11. Duration                                 : 1 h 48 min
  12. Bit rate mode                            : Variable
  13. Bit rate                                 : 33.7 Mb/s
  14. Maximum bit rate                         : 36.0 Mb/s
  15. Width                                    : 1 920 pixels
  16. Height                                   : 1 080 pixels
  17. Display aspect ratio                     : 16:9
  18. Frame rate mode                          : Constant
  19. Frame rate                               : 23.976 (24000/1001/189150) FPS
  20. Color space                              : YUV
  21. Chroma subsampling                       : 4:2:0
  22. Bit depth                                : 8 bits
  23. Scan type                                : Progressive
  24. Bits/(Pixel*Frame)                       : 0.677
  25. Stream size                              : 25.6 GiB (76%)
  26. Language                                 : English
  27. Default                                  : No
  28. Forced                                   : No
  29. Original source medium                   : Blu-ray
  30. Audio #1
  31. ID                                       : 2
  32. ID in the original source medium         : 4352 (0x1100)
  33. Format                                   : MLP FBA 16-ch
  34. Format/Info                              : Meridian Lossless Packing FBA with 16-channel presentation
  35. Commercial name                          : Dolby TrueHD with Dolby Atmos
  36. Codec ID                                 : A_TRUEHD
  37. Duration                                 : 1 h 48 min
  38. Bit rate mode                            : Variable
  39. Bit rate                                 : 4 232 kb/s
  40. Maximum bit rate                         : 8 016 kb/s
  41. Channel(s)                               : 8 channels
  42. Channel layout                           : L R C LFE Ls Rs Lb Rb
  43. Sampling rate                            : 48.0 kHz
  44. Frame rate                               : 1 200.000 FPS (40 SPF)
  45. Bit depth                                : 24 bits
  46. Compression mode                         : Lossless
  47. Stream size                              : 3.22 GiB (10%)
  48. Title                                    : TrueHD 7.1 Atmos
  49. Language                                 : English
  50. Default                                  : Yes
  51. Forced                                   : No
  52. Original source medium                   : Blu-ray
  53. Number of dynamic objects                : 11
  54. Bed channel count                        : 1 channel
  55. Bed channel configuration                : LFE
  56. Audio #2
  57. ID                                       : 3
  58. Format                                   : DTS XLL
  59. Format/Info                              : Digital Theater Systems
  60. Commercial name                          : DTS-HD Master Audio
  61. Codec ID                                 : A_DTS
  62. Duration                                 : 1 h 48 min
  63. Bit rate mode                            : Variable
  64. Bit rate                                 : 4 103 kb/s
  65. Channel(s)                               : 8 channels
  66. Channel layout                           : C L R LFE Lb Rb Lss Rss
  67. Sampling rate                            : 48.0 kHz
  68. Frame rate                               : 93.750 FPS (512 SPF)
  69. Bit depth                                : 24 bits
  70. Compression mode                         : Lossless
  71. Stream size                              : 3.12 GiB (9%)
  72. Title                                    : DTS-HD MA 7.1
  73. Language                                 : English
  74. Default                                  : No
  75. Forced                                   : No
  76. Audio #3
  77. ID                                       : 4
  78. ID in the original source medium         : 4352 (0x1100)
  79. Format                                   : AC-3
  80. Format/Info                              : Audio Coding 3
  81. Commercial name                          : Dolby Digital
  82. Format settings                          : Dolby Surround EX
  83. Codec ID                                 : A_AC3
  84. Duration                                 : 1 h 48 min
  85. Bit rate mode                            : Constant
  86. Bit rate                                 : 640 kb/s
  87. Channel(s)                               : 6 channels
  88. Channel layout                           : L R C LFE Ls Rs
  89. Sampling rate                            : 48.0 kHz
  90. Frame rate                               : 31.250 FPS (1536 SPF)
  91. Compression mode                         : Lossy
  92. Stream size                              : 498 MiB (1%)
  93. Title                                    : DD 5.1
  94. Language                                 : English
  95. Service kind                             : Complete Main
  96. Default                                  : No
  97. Forced                                   : No
  98. Original source medium                   : Blu-ray
  99. Audio #4
  100. ID                                       : 5
  101. ID in the original source medium         : 4353 (0x1101)
  102. Format                                   : AC-3
  103. Format/Info                              : Audio Coding 3
  104. Commercial name                          : Dolby Digital
  105. Codec ID                                 : A_AC3
  106. Duration                                 : 1 h 48 min
  107. Bit rate mode                            : Constant
  108. Bit rate                                 : 192 kb/s
  109. Channel(s)                               : 2 channels
  110. Channel layout                           : L R
  111. Sampling rate                            : 48.0 kHz
  112. Frame rate                               : 31.250 FPS (1536 SPF)
  113. Compression mode                         : Lossy
  114. Stream size                              : 150 MiB (0%)
  115. Title                                    : DD 2.0
  116. Language                                 : English
  117. Service kind                             : Complete Main
  118. Default                                  : No
  119. Forced                                   : No
  120. Original source medium                   : Blu-ray
  121. Audio #5
  122. ID                                       : 6
  123. ID in the original source medium         : 4354 (0x1102)
  124. Format                                   : AC-3
  125. Format/Info                              : Audio Coding 3
  126. Commercial name                          : Dolby Digital
  127. Codec ID                                 : A_AC3
  128. Duration                                 : 1 h 48 min
  129. Bit rate mode                            : Constant
  130. Bit rate                                 : 640 kb/s
  131. Channel(s)                               : 6 channels
  132. Channel layout                           : L R C LFE Ls Rs
  133. Sampling rate                            : 48.0 kHz
  134. Frame rate                               : 31.250 FPS (1536 SPF)
  135. Compression mode                         : Lossy
  136. Stream size                              : 499 MiB (1%)
  137. Title                                    : DD 5.1
  138. Language                                 : Spanish
  139. Service kind                             : Complete Main
  140. Default                                  : No
  141. Forced                                   : No
  142. Original source medium                   : Blu-ray
  143. Audio #6
  144. ID                                       : 7
  145. ID in the original source medium         : 4355 (0x1103)
  146. Format                                   : AC-3
  147. Format/Info                              : Audio Coding 3
  148. Commercial name                          : Dolby Digital
  149. Codec ID                                 : A_AC3
  150. Duration                                 : 1 h 48 min
  151. Bit rate mode                            : Constant
  152. Bit rate                                 : 640 kb/s
  153. Channel(s)                               : 6 channels
  154. Channel layout                           : L R C LFE Ls Rs
  155. Sampling rate                            : 48.0 kHz
  156. Frame rate                               : 31.250 FPS (1536 SPF)
  157. Compression mode                         : Lossy
  158. Stream size                              : 499 MiB (1%)
  159. Title                                    : DD 5.1
  160. Language                                 : French
  161. Service kind                             : Complete Main
  162. Default                                  : No
  163. Forced                                   : No
  164. Original source medium                   : Blu-ray
  165. Audio #7
  166. ID                                       : 8
  167. ID in the original source medium         : 4356 (0x1104)
  168. Format                                   : AC-3
  169. Format/Info                              : Audio Coding 3
  170. Commercial name                          : Dolby Digital
  171. Codec ID                                 : A_AC3
  172. Duration                                 : 1 h 48 min
  173. Bit rate mode                            : Constant
  174. Bit rate                                 : 192 kb/s
  175. Channel(s)                               : 2 channels
  176. Channel layout                           : L R
  177. Sampling rate                            : 48.0 kHz
  178. Frame rate                               : 31.250 FPS (1536 SPF)
  179. Compression mode                         : Lossy
  180. Stream size                              : 150 MiB (0%)
  181. Title                                    : DD 2.0
  182. Language                                 : English
  183. Service kind                             : Complete Main
  184. Default                                  : No
  185. Forced                                   : No
  186. Original source medium                   : Blu-ray
  187. Text #1
  188. ID                                       : 9
  189. Format                                   : UTF-8
  190. Codec ID                                 : S_TEXT/UTF8
  191. Codec ID/Info                            : UTF-8 Plain Text
  192. Duration                                 : 1 h 36 min
  193. Bit rate                                 : 36 b/s
  194. Count of elements                        : 786
  195. Stream size                              : 26.2 KiB (0%)
  196. Title                                    : SRT
  197. Language                                 : English
  198. Default                                  : Yes
  199. Forced                                   : No
  200. Text #2
  201. ID                                       : 10
  202. ID in the original source medium         : 4608 (0x1200)
  203. Format                                   : PGS
  204. Muxing mode                              : zlib
  205. Codec ID                                 : S_HDMV/PGS
  206. Codec ID/Info                            : Picture based subtitle format used on BDs/HD-DVDs
  207. Duration                                 : 1 h 39 min
  208. Bit rate                                 : 29.1 kb/s
  209. Count of elements                        : 1950
  210. Stream size                              : 20.7 MiB (0%)
  211. Language                                 : English
  212. Default                                  : No
  213. Forced                                   : No
  214. Original source medium                   : Blu-ray
  215. Text #3
  216. ID                                       : 11
  217. ID in the original source medium         : 4609 (0x1201)
  218. Format                                   : PGS
  219. Muxing mode                              : zlib
  220. Codec ID                                 : S_HDMV/PGS
  221. Codec ID/Info                            : Picture based subtitle format used on BDs/HD-DVDs
  222. Duration                                 : 1 h 46 min
  223. Bit rate                                 : 21.3 kb/s
  224. Count of elements                        : 1484
  225. Stream size                              : 16.2 MiB (0%)
  226. Language                                 : Spanish
  227. Default                                  : No
  228. Forced                                   : No
  229. Original source medium                   : Blu-ray
  230. Text #4
  231. ID                                       : 12
  232. ID in the original source medium         : 4610 (0x1202)
  233. Format                                   : PGS
  234. Muxing mode                              : zlib
  235. Codec ID                                 : S_HDMV/PGS
  236. Codec ID/Info                            : Picture based subtitle format used on BDs/HD-DVDs
  237. Duration                                 : 1 h 40 min
  238. Bit rate                                 : 24.8 kb/s
  239. Count of elements                        : 1542
  240. Stream size                              : 17.8 MiB (0%)
  241. Language                                 : French
  242. Default                                  : No
  243. Forced                                   : No
  244. Original source medium                   : Blu-ray
  245. Text #5
  246. ID                                       : 13
  247. ID in the original source medium         : 4610 (0x1202)
  248. Format                                   : PGS
  249. Muxing mode                              : zlib
  250. Codec ID                                 : S_HDMV/PGS
  251. Codec ID/Info                            : Picture based subtitle format used on BDs/HD-DVDs
  252. Duration                                 : 1 h 40 min
  253. Bit rate                                 : 890 b/s
  254. Count of elements                        : 74
  255. Stream size                              : 653 KiB (0%)
  256. Language                                 : French
  257. Default                                  : No
  258. Forced                                   : No
  259. Original source medium                   : Blu-ray
  260. Text #6
  261. ID                                       : 14
  262. ID in the original source medium         : 4611 (0x1203)
  263. Format                                   : PGS
  264. Muxing mode                              : zlib
  265. Codec ID                                 : S_HDMV/PGS
  266. Codec ID/Info                            : Picture based subtitle format used on BDs/HD-DVDs
  267. Duration                                 : 3 min 0 s
  268. Bit rate                                 : 20.3 kb/s
  269. Count of elements                        : 48
  270. Stream size                              : 447 KiB (0%)
  271. Language                                 : Spanish
  272. Default                                  : No
  273. Forced                                   : No
  274. Original source medium                   : Blu-ray
  275. Text #7
  276. ID                                       : 15
  277. ID in the original source medium         : 4611 (0x1203)
  278. Format                                   : PGS
  279. Muxing mode                              : zlib
  280. Codec ID                                 : S_HDMV/PGS
  281. Codec ID/Info                            : Picture based subtitle format used on BDs/HD-DVDs
  282. Duration                                 : 3 min 0 s
  283. Bit rate                                 : 20.3 kb/s
  284. Count of elements                        : 48
  285. Stream size                              : 447 KiB (0%)
  286. Language                                 : Spanish
  287. Default                                  : No
  288. Forced                                   : No
  289. Original source medium                   : Blu-ray
  290. Menu
  291. 00:00:00.000                             : en:Chapter 01
  292. 00:03:42.847                             : en:Chapter 02
  293. 00:11:16.300                             : en:Chapter 03
  294. 00:20:44.284                             : en:Chapter 04
  295. 00:25:32.489                             : en:Chapter 05
  296. 00:31:32.473                             : en:Chapter 06
  297. 00:37:53.771                             : en:Chapter 07
  298. 00:46:41.632                             : en:Chapter 08
  299. 00:51:49.314                             : en:Chapter 09
  300. 00:54:49.619                             : en:Chapter 10
  301. 00:59:55.925                             : en:Chapter 11
  302. 01:05:41.270                             : en:Chapter 12
  303. 01:12:48.739                             : en:Chapter 13
  304. 01:18:25.992                             : en:Chapter 14
  305. 01:25:31.292                             : en:Chapter 15
  306. 01:34:57.817                             : en:Chapter 16
复制代码

2d47540b0c740d35a2ba18399149d107.png
6d4e7a6947b283bfd3310e2106db8b86.png
1fabad720ea30397bf138fd0fc72fe55.png

蓝光高清网提示您  点击下方附件名称  马上开始下载


门徒 The.Protege.2021.1080p.US.BluRay.REMUX.AVC.DTS-HD.MA.TrueHD.7.1.Atmos-FGT 33.80GB
The.Protege.2021.1080p.US.BluRay.REMUX.AVC.DTS-HD.MA.TrueHD.7.1.Atmos-FGT.torrent (大小:42.91 KB)
加入蓝光高清网VIP会员  无限制下载本站所有资源---点这里

资源下载、资源播放、字幕使用、无法下载等常见问题---点这里
回复

使用道具 举报

精彩评论1

slj602手机认证 发表于 2021-10-21 14:29:28 | 显示全部楼层
多谢楼主发帖
回复 支持 反对

使用道具 举报

您需要登录后才可以回帖 登录 | 立即注册

本版积分规则

烧友之家(蓝光高清网)本站内容部分由用户自主分享和转载自互联网,转载目的在于传递更多信息,并不代表本网赞同其观点和对其真实性负责。 如有侵权、违反国家法律政策行为,请联系我们,我们会第一时间及时清除和处理!
关注我们
  • 官方微信公众号
  • 扫码下载官方APP

X3.4 Licensed© 2001-2013 蓝光高清网 烧友之家APP |网站地图