游客您好
第三方账号登陆
  • 客服在线时间

    周一至周五 8:30-17:30
  • 烧友之家APP

    随时掌握烧友资讯

  • 扫描二维码

    关注微信公众号

推荐阅读
蓝鸟
未知星球 | 未知职业
  • 关注0
  • 粉丝2
  • 帖子96539
精选帖子
开启左侧

[其它] 埃尔维斯·普雷斯利:思索者 Elvis.Presley.The.Searcher.2018.1080p.BluRay.x264-PFa 19.65GB

[复制链接]
蓝鸟 发表于 2021-10-20 19:12:54 | 显示全部楼层 |阅读模式 打印 上一主题 下一主题
image.png

◎译  名 埃尔维斯·普雷斯利:思索者
◎片  名 Elvis Presley: The Searcher
◎年  代 2018
◎产  地 美国
◎类  别 纪录片 / 音乐 / 传记
◎语  言 英语
◎上映日期 2018-04-14(美国)
◎豆瓣评分 8.4/10 from 105 users
◎片  长 108分钟(上)
◎导  演 托姆·齐穆尼 Thom Zimny
◎主  演 史蒂夫·艾伦 Steve Allen
       安-玛格丽特 Ann-Margret
       Chet Atkins Chet Atkins
       Chris Bearde Chris Bearde
       查克  贝里 Chuck Berry
       Steve Binder Steve Binder
       比尔·布莱克 Bill Black
       哈尔·布莱因 Hal Blaine
       Mae Boren Axton Mae Boren Axton
       James Cotton James Cotton
       Floyd Cramer Floyd Cramer
       Arthur Crudup Arthur Crudup
       迈克尔·柯蒂兹 Michael Curtiz
       鲍勃·迪伦 Bob Dylan
       艾瑞莎·弗兰克林 Aretha Franklin
       Hank Garland Hank Garland
       Rosco Gordon Rosco Gordon
       格伦·D·哈丁 Glen D. Hardin
       爱美萝·哈里斯 Emmylou Harris
       乔治·哈里逊 George Harrison
       查理·霍奇 Charlie Hodge
       茜茜·休斯顿 Cissy Houston
       罗伯特·肯尼迪 Robert F. Kennedy
       马丁·路德·金 Martin Luther King
       Jon Landau Jon Landau
       马里奥·兰扎 Mario Lanza
       Jerry Leiber Jerry Leiber
       约翰·列侬 John Lennon
       杰瑞·李·刘易斯 Jerry Lee Lewis
       小理查德 Little Richard
       迪恩·马丁 Dean Martin
        Portia Maultsby
       保罗·麦卡特尼 Paul McCartney
       George McGovern George McGovern
       Little Milton Little Milton
       Bill Monroe Bill Monroe
       斯科特·摩尔 Scotty Moore
       理查德·尼克松 Richard Nixon
       Tom Parker Tom Parker
       汤姆·佩蒂 Tom Petty
       Dewey Phillips Dewey Phillips
       萨姆·菲利普斯 Sam Phillips
       埃尔维斯·普雷斯利 Elvis Presley
       Gladys Presley Gladys Presley
       普瑞希拉·普雷斯利 Priscilla Presley
       弗农·普雷斯利 Vernon Presley
       Lloyd Price Lloyd Price
       Boots Randolph Boots Randolph
       Johnnie Ray Johnnie Ray
       罗比·罗伯逊 Robbie Robertson
       杰瑞·席林 Jerry Schilling
       弗兰克·辛纳特拉 Frank Sinatra
       布鲁斯·斯普林斯汀 Bruce Springsteen
       迈克·斯托勒 Mike Stoller
       埃德·沙利文 Ed Sullivan
       Carla Thomas Carla Thomas
       Rufus Thomas Rufus Thomas
       Big Joe Turner Big Joe Turner
       艾克·特纳 Ike Turner
       Chester Burnett Chester Burnett
◎标  签 纪录片 | 传记 | 音乐 | 美国 | 猫王 | 摇滚 | HBO | music
◎简  介


  This three-hour, two-film presentation "Elvis Presley: The Searcher" focuses on Elvis Presley the musical artist, taking the audience on a comprehensive creative journey from his childhood through the final 1976 Jungle Room recording sessions.
  1. Video
  2. ID                                       : 1
  3. Format                                   : AVC
  4. Format/Info                              : Advanced Video Codec
  5. Format profile                           : [email protected]
  6. Format settings                          : CABAC / 5 Ref Frames
  7. Format settings, CABAC                   : Yes
  8. Format settings, Reference frames        : 5 frames
  9. Codec ID                                 : V_MPEG4/ISO/AVC
  10. Duration                                 : 3 h 25 min
  11. Bit rate                                 : 11.4 Mb/s
  12. Width                                    : 1 920 pixels
  13. Height                                   : 804 pixels
  14. Display aspect ratio                     : 2.40:1
  15. Frame rate mode                          : Constant
  16. Frame rate                               : 23.976 (24000/1001/189150) FPS
  17. Color space                              : YUV
  18. Chroma subsampling                       : 4:2:0
  19. Bit depth                                : 8 bits
  20. Scan type                                : Progressive
  21. Bits/(Pixel*Frame)                       : 0.309
  22. Stream size                              : 16.4 GiB (83%)
  23. Writing library                          : x264 core 164 r3075 66a5bc1
  24. Encoding settings                        : cabac=1 / ref=5 / deblock=1:-3:-3 / analyse=0x3:0x133 / me=umh / subme=9 / psy=1 / psy_rd=1.00:0.00 / mixed_ref=1 / me_range=16 / chroma_me=1 / trellis=2 / 8x8dct=1 / cqm=0 / deadzone=21,11 / fast_pskip=1 / chroma_qp_offset=-2 / threads=18 / lookahead_threads=1 / sliced_threads=0 / nr=0 / decimate=1 / interlaced=0 / bluray_compat=0 / constrained_intra=0 / bframes=3 / b_pyramid=2 / b_adapt=2 / b_bias=0 / direct=3 / weightb=1 / open_gop=0 / weightp=2 / keyint=250 / keyint_min=23 / scenecut=40 / intra_refresh=0 / rc_lookahead=60 / rc=crf / mbtree=1 / crf=15.0 / qcomp=0.60 / qpmin=0 / qpmax=69 / qpstep=4 / ip_ratio=1.40 / aq=3:0.70
  25. Language                                 : English
  26. Default                                  : Yes
  27. Forced                                   : No

  28. Audio
  29. ID                                       : 2
  30. Format                                   : DTS XLL
  31. Format/Info                              : Digital Theater Systems
  32. Commercial name                          : DTS-HD Master Audio
  33. Codec ID                                 : A_DTS
  34. Duration                                 : 3 h 25 min
  35. Bit rate mode                            : Variable
  36. Bit rate                                 : 2 243 kb/s
  37. Channel(s)                               : 6 channels
  38. Channel layout                           : C L R Ls Rs LFE
  39. Sampling rate                            : 48.0 kHz
  40. Frame rate                               : 93.750 FPS (512 SPF)
  41. Bit depth                                : 16 bits
  42. Compression mode                         : Lossless
  43. Stream size                              : 3.21 GiB (16%)
  44. Language                                 : English
  45. Default                                  : Yes
  46. Forced                                   : No

  47. Text
  48. ID                                       : 3
  49. Format                                   : PGS
  50. Muxing mode                              : zlib
  51. Codec ID                                 : S_HDMV/PGS
  52. Codec ID/Info                            : Picture based subtitle format used on BDs/HD-DVDs
  53. Duration                                 : 3 h 17 min
  54. Bit rate                                 : 56.6 kb/s
  55. Count of elements                        : 4508
  56. Stream size                              : 80.2 MiB (0%)
  57. Language                                 : English
  58. Default                                  : Yes
  59. Forced                                   : No
复制代码

74c6f40c51c1a83f44e67a0d86fdb673.jpeg

蓝光高清网提示您  点击下方附件名称  马上开始下载

埃尔维斯·普雷斯利:思索者 Elvis.Presley.The.Searcher.2018.1080p.BluRay.x264-PFa 19.65GB
Elvis.Presley.The.Searcher.2018.1080p.BluRay.x264-PFa.torrent (大小:25.35 KB)
加入蓝光高清网VIP会员  无限制下载本站所有资源---点这里

资源下载、资源播放、字幕使用、无法下载等常见问题---点这里
回复

使用道具 举报

您需要登录后才可以回帖 登录 | 立即注册

本版积分规则

烧友之家(蓝光高清网)本站内容部分由用户自主分享和转载自互联网,转载目的在于传递更多信息,并不代表本网赞同其观点和对其真实性负责。 如有侵权、违反国家法律政策行为,请联系我们,我们会第一时间及时清除和处理!
关注我们
  • 官方微信公众号
  • 扫码下载官方APP

X3.4 Licensed© 2001-2013 蓝光高清网 烧友之家APP |网站地图