游客您好
第三方账号登陆
  • 客服在线时间

    周一至周五 8:30-17:30
  • 烧友之家APP

    随时掌握烧友资讯

  • 扫描二维码

    关注微信公众号

推荐阅读
蓝鸟
未知星球 | 未知职业
  • 关注0
  • 粉丝2
  • 帖子96539
精选帖子
开启左侧

[喜剧] 爱情婚礼和其它灾难 Love.Weddings.and.Other.Disasters.2020.1080p.BluRay.x264-JustWatch 8.50GB

[复制链接]
蓝鸟 发表于 2021-10-20 19:14:39 | 显示全部楼层 |阅读模式 打印 上一主题 下一主题
image.png



◎译  名 爱情,婚礼和其它灾难/Love & Other Disasters/爱、婚礼和其他灾难/爱情瞎搅祸(台)
◎片  名 Love, Weddings & Other Disasters
◎年  代 2020
◎产  地 美国
◎类  别 喜剧 / 爱情
◎语  言 英语
◎上映日期 2020-12-04(美国)
◎豆瓣评分 5.7/10 from 253 users
◎片  长 90分钟
◎导  演 丹尼斯·杜根 Dennis Dugan
◎编  剧 丹尼斯·杜根 Dennis Dugan / 拉里·米勒 Larry Miller
◎主  演 杰瑞米·艾恩斯 Jeremy Irons
       黛安·基顿 Diane Keaton
       玛姬·格蕾斯 Maggie Grace
       迪耶戈·博内塔 Diego Boneta
       杰西·麦卡尼 Jesse McCartney
       托德·斯塔什维克 Todd Stashwick
       丹尼斯·杜根 Dennis Dugan
       安德鲁·巴切勒 Andrew Bachelor
       理查德·克兰 Richard Kline
       钱德拉·韦斯特 Chandra West
       维罗尼卡·费瑞尔 Veronica Ferres
       梅林达·希尔 Melinda Hill
       金伯利·豪威 Kimberly Howe
       威廉·泽法尔茨 William Xifaras
       珍妮尔·费格利 Janelle Feigley
       琪拉·皮查多 Kiara Pichardo
       Keaton Simons Keaton Simons
       比利·康查 Billy Concha
       约瑟夫·奥利维拉 Joseph Oliveira
        Tarek Moussa
◎标  签 喜剧 | 美国 | 杰瑞米·艾恩斯 | JeremyIrons | 2020 | 黛安·基顿 | 爱情 | 美国电影
◎简  介


  丹尼斯·杜根(《随波逐流 》、《长大成人》)将执导他的第一部独立电影《Love & Other Disasters》,该片是一部由女性主导的浪漫喜剧,讲述那些在婚礼上努力为相爱的夫妻创造完美一天的人们,而他们自己的关系是古怪的、疯狂的,远不是完美的。
  1. Video
  2. ID                                       : 1
  3. Format                                   : AVC
  4. Format/Info                              : Advanced Video Codec
  5. Format profile                           : [email protected]
  6. Format settings                          : CABAC / 4 Ref Frames
  7. Format settings, CABAC                   : Yes
  8. Format settings, Reference frames        : 4 frames
  9. Codec ID                                 : V_MPEG4/ISO/AVC
  10. Duration                                 : 1 h 38 min
  11. Bit rate                                 : 10.5 Mb/s
  12. Width                                    : 1 920 pixels
  13. Height                                   : 1 036 pixels
  14. Display aspect ratio                     : 1.85:1
  15. Frame rate mode                          : Constant
  16. Frame rate                               : 23.976 (24000/1001/189150) FPS
  17. Color space                              : YUV
  18. Chroma subsampling                       : 4:2:0
  19. Bit depth                                : 8 bits
  20. Scan type                                : Progressive
  21. Bits/(Pixel*Frame)                       : 0.221
  22. Stream size                              : 7.20 GiB (85%)
  23. Writing library                          : x264 core 164 r3065 ae03d92
  24. Encoding settings                        : cabac=1 / ref=4 / deblock=1:-3:-3 / analyse=0x3:0x133 / me=umh / subme=9 / psy=1 / psy_rd=1.00:0.00 / mixed_ref=1 / me_range=16 / chroma_me=1 / trellis=2 / 8x8dct=1 / cqm=0 / deadzone=21,11 / fast_pskip=0 / chroma_qp_offset=-2 / threads=32 / lookahead_threads=2 / sliced_threads=0 / nr=0 / decimate=1 / interlaced=0 / bluray_compat=0 / constrained_intra=0 / bframes=3 / b_pyramid=2 / b_adapt=2 / b_bias=0 / direct=3 / weightb=1 / open_gop=0 / weightp=2 / keyint=250 / keyint_min=23 / scenecut=40 / intra_refresh=0 / rc_lookahead=60 / rc=crf / mbtree=1 / crf=18.4 / qcomp=0.60 / qpmin=0 / qpmax=69 / qpstep=4 / ip_ratio=1.40 / aq=1:1.00
  25. Language                                 : English
  26. Default                                  : Yes
  27. Forced                                   : No

  28. Audio
  29. ID                                       : 2
  30. Format                                   : DTS XLL
  31. Format/Info                              : Digital Theater Systems
  32. Commercial name                          : DTS-HD Master Audio
  33. Codec ID                                 : A_DTS
  34. Duration                                 : 1 h 38 min
  35. Bit rate mode                            : Variable
  36. Bit rate                                 : 1 862 kb/s
  37. Channel(s)                               : 6 channels
  38. Channel layout                           : C L R Ls Rs LFE
  39. Sampling rate                            : 48.0 kHz
  40. Frame rate                               : 93.750 FPS (512 SPF)
  41. Bit depth                                : 16 bits
  42. Compression mode                         : Lossless
  43. Stream size                              : 1.27 GiB (15%)
  44. Language                                 : English
  45. Default                                  : Yes
  46. Forced                                   : No

  47. Text
  48. ID                                       : 3
  49. Format                                   : PGS
  50. Muxing mode                              : zlib
  51. Codec ID                                 : S_HDMV/PGS
  52. Codec ID/Info                            : Picture based subtitle format used on BDs/HD-DVDs
  53. Duration                                 : 1 h 31 min
  54. Bit rate                                 : 56.7 kb/s
  55. Count of elements                        : 3660
  56. Stream size                              : 37.2 MiB (0%)
  57. Language                                 : German
  58. Default                                  : No
  59. Forced                                   : No

  60. Menu
  61. 00:00:00.000                             : en:Chapter 01
  62. 00:07:34.954                             : en:Chapter 02
  63. 00:16:54.430                             : en:Chapter 03
  64. 00:23:44.214                             : en:Chapter 04
  65. 00:33:03.565                             : en:Chapter 05
  66. 00:39:46.718                             : en:Chapter 06
  67. 00:48:54.306                             : en:Chapter 07
  68. 00:59:12.674                             : en:Chapter 08
  69. 01:05:37.183                             : en:Chapter 09
  70. 01:14:06.776                             : en:Chapter 10
  71. 01:21:20.459                             : en:Chapter 11
  72. 01:32:44.017                             : en:Chapter 12
复制代码

蓝光高清网提示您  点击下方附件名称  马上开始下载

爱情婚礼和其它灾难 Love.Weddings.and.Other.Disasters.2020.1080p.BluRay.x264-JustWatch 8.50GB
Love.Weddings.and.Other.Disasters.2020.1080p.BluRay.x264-JustWatch.torrent (大小:22.04 KB)
加入蓝光高清网VIP会员  无限制下载本站所有资源---点这里

资源下载、资源播放、字幕使用、无法下载等常见问题---点这里
回复

使用道具 举报

您需要登录后才可以回帖 登录 | 立即注册

本版积分规则

烧友之家(蓝光高清网)本站内容部分由用户自主分享和转载自互联网,转载目的在于传递更多信息,并不代表本网赞同其观点和对其真实性负责。 如有侵权、违反国家法律政策行为,请联系我们,我们会第一时间及时清除和处理!
关注我们
  • 官方微信公众号
  • 扫码下载官方APP

X3.4 Licensed© 2001-2013 蓝光高清网 烧友之家APP |网站地图