游客您好
第三方账号登陆
  • 客服在线时间

    周一至周五 8:30-17:30
  • 烧友之家APP

    随时掌握烧友资讯

  • 扫描二维码

    关注微信公众号

推荐阅读
蓝鸟
未知星球 | 未知职业
  • 关注0
  • 粉丝2
  • 帖子96539
精选帖子
开启左侧

[恐怖] 最后的笑声 The.Last.Laugh.2020.1080p.BluRay.x264-FREEMAN 5.45GB

[复制链接]
蓝鸟 发表于 2021-10-20 19:16:25 | 显示全部楼层 |阅读模式 打印 上一主题 下一主题
image.png

◎译  名 最后的笑声/Killing Joke
◎片  名 The Last Laugh
◎年  代 2020
◎产  地 美国
◎类  别 恐怖
◎语  言 英语
◎上映日期 2020-09-15(美国)
◎主  演 米兰达·朗 Meranda Long
       Eric Stone Eric Stone
◎标  签 恐怖 | 美国电影 | 惊悚 | Cult | B级片
◎简  介


  一位单人脱口秀谐星,即将站上他人生最大的表演舞台表演,他的前景看好。不料,他却在开演前发现了一位在逃的杀人凶手,他会做出什么糟糕的决定?
  1. Video
  2. ID                                       : 1
  3. Format                                   : AVC
  4. Format/Info                              : Advanced Video Codec
  5. Format profile                           : [email protected]
  6. Format settings                          : CABAC / 4 Ref Frames
  7. Format settings, CABAC                   : Yes
  8. Format settings, Reference frames        : 4 frames
  9. Codec ID                                 : V_MPEG4/ISO/AVC
  10. Duration                                 : 1 h 21 min
  11. Bit rate                                 : 6 590 kb/s
  12. Width                                    : 1 920 pixels
  13. Height                                   : 960 pixels
  14. Display aspect ratio                     : 2.000
  15. Frame rate mode                          : Constant
  16. Frame rate                               : 23.976 (24000/1001/189150) FPS
  17. Color space                              : YUV
  18. Chroma subsampling                       : 4:2:0
  19. Bit depth                                : 8 bits
  20. Scan type                                : Progressive
  21. Bits/(Pixel*Frame)                       : 0.149
  22. Stream size                              : 3.76 GiB (69%)
  23. Writing library                          : x264 core 164 r3075 66a5bc1
  24. Encoding settings                        : cabac=1 / ref=4 / deblock=1:-3:-3 / analyse=0x3:0x133 / me=umh / subme=9 / psy=1 / psy_rd=1.00:0.00 / mixed_ref=1 / me_range=16 / chroma_me=1 / trellis=2 / 8x8dct=1 / cqm=0 / deadzone=21,11 / fast_pskip=0 / chroma_qp_offset=-2 / threads=24 / lookahead_threads=2 / sliced_threads=0 / nr=0 / decimate=1 / interlaced=0 / bluray_compat=0 / constrained_intra=0 / bframes=3 / b_pyramid=2 / b_adapt=2 / b_bias=0 / direct=3 / weightb=1 / open_gop=0 / weightp=2 / keyint=250 / keyint_min=23 / scenecut=40 / intra_refresh=0 / rc_lookahead=60 / rc=crf / mbtree=1 / crf=17.0 / qcomp=0.60 / qpmin=0 / qpmax=69 / qpstep=4 / ip_ratio=1.40 / aq=3:1.00
  25. Default                                  : Yes
  26. Forced                                   : No
  27. Color range                              : Limited
  28. Matrix coefficients                      : BT.709

  29. Audio
  30. ID                                       : 2
  31. Format                                   : DTS XLL
  32. Format/Info                              : Digital Theater Systems
  33. Commercial name                          : DTS-HD Master Audio
  34. Codec ID                                 : A_DTS
  35. Duration                                 : 1 h 21 min
  36. Bit rate mode                            : Variable
  37. Bit rate                                 : 2 960 kb/s
  38. Channel(s)                               : 6 channels
  39. Channel layout                           : C L R Ls Rs LFE
  40. Sampling rate                            : 48.0 kHz
  41. Frame rate                               : 93.750 FPS (512 SPF)
  42. Bit depth                                : 24 bits
  43. Compression mode                         : Lossless
  44. Stream size                              : 1.69 GiB (31%)
  45. Language                                 : English
  46. Default                                  : Yes
  47. Forced                                   : No

  48. Menu
  49. 00:00:00.000                             : en:00:00:00.000
  50. 00:10:29.629                             : en:00:10:29.629
  51. 00:20:55.254                             : en:00:20:55.254
  52. 00:31:58.917                             : en:00:31:58.917
  53. 00:42:07.525                             : en:00:42:07.525
  54. 00:50:56.053                             : en:00:50:56.053
  55. 01:01:27.684                             : en:01:01:27.684
  56. 01:11:51.307                             : en:01:11:51.307
  57. 01:17:54.670                             : en:01:17:54.670
复制代码

3e645b3e9efee3ca471aa99de8f65fe6.jpeg

蓝光高清网提示您  点击下方附件名称  马上开始下载


最后的笑声 The.Last.Laugh.2020.1080p.BluRay.x264-FREEMAN 5.45GB
The.Protege.2021.720p.BluRay.x264-PiGNUS.torrent (大小:21.78 KB)
加入蓝光高清网VIP会员  无限制下载本站所有资源---点这里

资源下载、资源播放、字幕使用、无法下载等常见问题---点这里
回复

使用道具 举报

您需要登录后才可以回帖 登录 | 立即注册

本版积分规则

烧友之家(蓝光高清网)本站内容部分由用户自主分享和转载自互联网,转载目的在于传递更多信息,并不代表本网赞同其观点和对其真实性负责。 如有侵权、违反国家法律政策行为,请联系我们,我们会第一时间及时清除和处理!
关注我们
  • 官方微信公众号
  • 扫码下载官方APP

X3.4 Licensed© 2001-2013 蓝光高清网 烧友之家APP |网站地图