蓝光高清网

开启左侧

骗局 4k The.Trick.2021.2160p.WEB-DL.x265.10bit.HDR.HLG.AAC2.0-4k电影下载—11.65 GB

[复制链接]

2021-12-1 18:43:33 6295 3

蓝鸟 发表于 2021-10-28 20:53:56 |阅读模式

蓝鸟 楼主

2021-10-28 20:53:56

骗局
上映时间:2021年
类型:惊悚 
地区:英国 
导演:Pip Broughton
主演:杰森·沃特金斯 / 乔治·麦凯 / 维多利亚·汉密尔顿 / 拉哈珊·斯通 / 艾波·罗丝·雷瓦
画质标准:4K HDR  封装音轨:ACC 2.0 
豆瓣评分:暂无评分
简       介
7 `2 b" q( f7 M, |2 g
9 l/ o! E  a. Z

, i9 W7 u+ ]8 z9 [  根据真实故事改编,聚焦2009年“气候门”事件主角,世界知名的气候学研究专家菲利普·琼斯。7 d* }. D7 z0 P/ K+ J9 k9 P, R# F
, Z  _& `' m' _  M) A1 H

% t' n3 \5 ]5 y+ w& O5 k影片参数
4 j4 x7 {8 L) Z( d; V1 v
骗局4k The.Trick.2021.2160p.WEB-DL.x265.10bit.HDR.HLG.AAC2.0-4k电影信息: R5 u. E7 \+ \- c
Video7 ]  G5 n! F4 h- B5 S2 Z0 \
ID : 1
: x2 k. m. F( rFormat : HEVC: X5 S4 X+ w7 @0 S. P
Format/Info : High Efficiency Video Coding
/ B- s9 i& N0 O& v3 B$ }& C* p5 dFormat profile : Main 10@L5.1@Main% K1 t3 V% p& {2 |" p
Codec ID : V_MPEGH/ISO/HEVC. U9 [0 R8 Y( e- F2 j
Duration : 1 h 29 min
, X% R/ U% }; a' ^% d' w4 qBit rate : 18.5 Mb/s; T! d7 A$ t  n% S
Width : 3 840 pixels
$ }" X, X/ e$ i) `$ UHeight : 2 160 pixels
5 e7 I' S  O3 S  C: TDisplay aspect ratio : 16:9
/ Q5 j$ n8 ~7 ?' P& M7 j5 L8 vFrame rate mode : Constant, B( J( t; z* F7 B0 B4 _
Frame rate : 25.000 FPS
: M( b" }; D7 C1 p% uStandard : Component
4 P1 }2 d1 S. k8 HColor space : YUV. P: @7 W0 N% q" p
Chroma subsampling : 4:2:0
( w% K5 M7 ^  j+ f" t7 i% J; `3 u% [Bit depth : 10 bits
9 _* P  Q  N: B! }2 RBits/(Pixel*Frame) : 0.0891 J4 _- E. A& R7 G2 G. K
Stream size : 11.5 GiB (99%)+ _; u) @" g3 A$ t/ D( S% w
Language : English
' \! X/ M  x4 JDefault : Yes' B( H. Z9 t2 l: f4 O8 b  a, _
Forced : No
) q7 s9 z, Y8 y7 [: L! ^. F. ]Color range : Limited& o' p  r, Z0 p
Color primaries : BT.2020
: j: C" c0 A5 w. o$ p9 JTransfer characteristics : BT.2020 (10-bit)8 c" _- b" g" M1 i: C" p- ~
transfer_characteristics_Original : HLG / BT.2020 (10-bit)
6 U! t' h' Q  T0 ^+ DMatrix coefficients : BT.2020 non-constant
' y$ K2 X# u; p# Y; y! N. ], P
0 A8 W  t3 K. c7 O

+ P6 ?: m2 y: Z6 N" ?  ]/ j% ^Audio
) t! i* d: B3 U  p. a5 vID : 23 f$ W% [' f# m8 G8 Z* L, C) ^
Format : AAC LC
/ R: M- V, B1 p" W4 U# \7 NFormat/Info : Advanced Audio Codec Low Complexity# U, e# ]. k9 U' L
Codec ID : A_AAC-27 F  C$ w- x7 ^8 Z& o9 e7 _  {
Duration : 1 h 29 min7 j& k- `1 P" i& v- c) M& Y% {/ M3 e
Bit rate : 192 kb/s
- C& g0 Z0 ?5 q) G/ H6 B, |$ p1 {Channel(s) : 2 channels9 n- J3 C6 O  g: s" w# g5 f
Channel layout : L R: Q; S) ^# H3 o2 e, U; I
Sampling rate : 48.0 kHz
/ V9 }9 a6 Y: MFrame rate : 46.875 FPS (1024 SPF)$ D+ m  a7 H6 q+ G# Z" k  ^
Compression mode : Lossy
, i* v3 ?3 R) e( R5 K- p$ [Stream size : 121 MiB (1%)4 Z. A& C8 I( n# [1 U* s  X0 c
Language : English# M' `1 W% Y- ^
Default : Yes
- v- @* C1 j3 @* |0 g# T3 B: fForced : No' q4 s& e  ?5 f# F4 o9 R+ N9 p

6 p. j/ }" @8 z, b

( z+ D- c$ G; `9 i5 G- Y, sText #1
  K* ]. B1 F6 L. c2 y9 X) jID : 3
  ]% P9 Y7 w) u2 PFormat : UTF-88 o0 s4 Q6 W& n( k" E5 {/ H; \9 s
Codec ID : S_TEXT/UTF82 v" N4 Y, Y5 s" S$ S
Codec ID/Info : UTF-8 Plain Text9 p, [# ]! c  R+ }8 T! V
Duration : 1 h 27 min
( j$ _; k- b7 o+ x6 p/ wBit rate : 71 b/s
( ^& c( d8 R4 n  z. OCount of elements : 1181
9 v5 \7 c- b5 P$ b+ `. ]Stream size : 46.2 KiB (0%)
6 q" ]0 H1 Y4 b; GLanguage : English) j' r/ x- _/ n: d) ?8 w
Default : No- E2 e/ a8 ~" \$ d' T2 K5 e
Forced : No& F# f* X* p; S. o. t0 {
4 N2 b; x  ~+ @
+ S4 }9 \! H* n! t" X
Text #2
! W! c2 g* F$ u5 l$ s  PID : 4
& w) L. ^" F2 d# h2 s3 SFormat : UTF-8
' D) O) g" a' `- g# T2 hCodec ID : S_TEXT/UTF8
  `0 N* r! }$ z4 F; BCodec ID/Info : UTF-8 Plain Text
# C( y) H  E) R- ^Duration : 1 h 27 min' o' u0 H9 C, T5 W
Bit rate : 71 b/s( F1 Y4 |- E4 F! H7 v
Count of elements : 1181
) c( C9 z& X" |3 fStream size : 46.3 KiB (0%)
+ e: |# {& V) S! I2 i) S6 ~& }) [Title : SDH$ j& x. f/ Z: P7 a
Language : English7 c1 e& C" u! Q; v9 F$ W' F
Default : No9 i5 L" b; O+ D- E* t3 D
Forced : No

1 `  [6 I% w2 j
6 I4 ~1 G' H- ]8 t7 f- a蓝光高清网提示您  点击下方附件名称  马上开始下载
3 N2 p+ c4 m+ c+ g, ]* M' c1 N* C* D' T9 Y6 R' z! j& H0 J, L$ g
7 |- _' h; I. t6 U
骗局4k The.Trick.2021.2160p.WEB-DL.x265.10bit.HDR.HLG.AAC2.0-4k电影下载
2 l) G/ ]/ M; g) C* S% E
/ K% L$ l; b+ b( v9 n骗局4k The.Trick.2021.2160p.WEB-DL.x265.10bit.HDR.HLG.AAC2.0【11.65 GB】
$ h8 b6 F# c, I+ P 骗局4kThe.Trick.2021.2160p.WEB-DL.x265.10bit.HDR.HLG.AAC2.0-TEPES.torrent (15.19 KB)
加入蓝光高清网VIP会员  无限制下载本站所有资源---点这里

资源下载、资源播放、字幕使用、无法下载等常见问题---点这里
回复

使用道具 举报

全部回复3

4kpropWy9MS9n手机认证 发表于 2021-10-29 15:40:33

4kpropWy9MS9n 沙发

2021-10-29 15:40:33

感谢楼主分享的资源!!!
回复 支持 反对

使用道具 举报

4kpropWy9MS9n手机认证 发表于 2021-10-30 10:48:05 来自手机

4kpropWy9MS9n 板凳

2021-10-30 10:48:05

谢谢楼主分享
回复 支持 反对

使用道具 举报

空白格的平凡手机认证 发表于 2021-12-1 18:43:33 来自手机

空白格的平凡 地板

2021-12-1 18:43:33

回复 支持 反对

使用道具 举报

发表回复

您需要登录后才可以回帖 登录 | 立即注册

返回列表 本版积分规则

  • 发帖

  • 在线客服

  • 微信

  • 客户端

  • 返回顶部