蓝光高清网

开启左侧

鹰眼4K.Hawkeye.2021.S01.2160p.DSNP.WEB-DL.x265.10bit.HDR.DDP5.1.Atmos 美剧下载—7.42 GB

  [复制链接]

2021-12-31 14:58:00 17392 9

蓝鸟 发表于 2021-11-26 09:11:59 |阅读模式

蓝鸟 楼主

2021-11-26 09:11:59

鹰眼

状态:第一季(完结)
上映时间:2021-11-24
类型:动作 剧情 科幻 犯罪 冒险 悬疑 
地区:美国
导演:瑞斯·托马斯 / 伯特 / 伯蒂
主演:杰瑞米·雷纳 / 海莉·斯坦菲尔德 / 维拉·法米加 / 托尼·达尔顿 / 弗拉·菲
画质标准:4K(3840x2160) 封装音轨:MKV 音轨编码:其他DD
豆瓣评分:8.0分
剧情简介
  这部剧集主要讲述鹰眼Clint Barton如何把自己的名号传递Kate Bishop。Kate Bishop是少年复仇者一员,另是第一位成为「鹰眼」的女性....
本帖最后由 蓝鸟 于 2021-12-27 12:16 编辑

影片参数
General
TEPES\Hawkeye.2021.S01E01.Never.Meet.Your.Heroes.2160p.WEB-DL.DDP5.1.Atmos.HDR.HEVC-TEPES.mkv
Format                         : Matroska
Format version                 : Version 4
File size                      : 7.42 GiB
Duration                       : 47 min 24 s
Overall bit rate               : 22.4 Mb/s
Encoded date                   : UTC 2021-11-24 08:17:58
Writing application            : mkvmerge v63.0.0 ('Everything') 64-bit
Writing library                : libebml v1.4.2 + libmatroska v1.6.4

Video
ID                             : 1
Format                         : HEVC
Format/Info                    : High Efficiency Video Coding
Format profile                 : Main 10@L5@Main
Codec ID                       : V_MPEGH/ISO/HEVC
Duration                       : 47 min 24 s
Bit rate                       : 21.6 Mb/s
Width                          : 3 840 pixels
Height                         : 2 160 pixels
Display aspect ratio           : 16:9
Frame rate mode                : Constant
Frame rate                     : 24.000 FPS
Color space                    : YUV
Chroma subsampling             : 4:2:0
Bit depth                      : 10 bits
Bits/(Pixel*Frame)             : 0.109
Stream size                    : 7.16 GiB (97%)
Writing library                : x265 3.5:[Linux][GCC 9.3.0][64 bit] 10bit
Encoding settings              : cpuid=1111039 / frame-threads=1 / wpp / no-pmode / no-pme / no-psnr / no-ssim / log-level=2 / input-csp=1 / input-res=3840x2160 / interlace=0 / total-frames=0 / level-idc=50 / high-tier=0 / uhd-bd=0 / ref=3 / no-allow-non-conformance / repeat-headers / annexb / no-aud / no-hrd / info / hash=0 / no-temporal-layers / no-open-gop / min-keyint=48 / keyint=48 / gop-lookahead=0 / bframes=2 / b-adapt=0 / b-pyramid / bframe-bias=0 / rc-lookahead=48 / lookahead-slices=8 / scenecut=0 / hist-scenecut=0 / radl=0 / no-splice / no-intra-refresh / ctu=32 / min-cu-size=8 / no-rect / no-amp / max-tu-size=16 / tu-inter-depth=2 / tu-intra-depth=2 / limit-tu=0 / rdoq-level=1 / dynamic-rd=0.00 / no-ssim-rd / signhide / no-tskip / nr-intra=0 / nr-inter=0 / no-constrained-intra / no-strong-intra-smoothing / max-merge=3 / limit-refs=1 / no-limit-modes / me=1 / subme=2 / merange=44 / temporal-mvp / no-frame-dup / no-hme / weightp / no-weightb / no-analyze-src-pics / deblock=0:0 / no-sao / no-sao-non-deblock / rd=4 / selective-sao=0 / early-skip / rskip / no-fast-intra / no-tskip-fast / no-cu-lossless / b-intra / no-splitrd-skip / rdpenalty=1 / psy-rd=1.60 / psy-rdoq=5.00 / no-rd-refine / no-lossless / cbqpoffs=0 / crqpoffs=0 / rc=abr / bitrate=23000 / qcomp=0.75 / qpstep=4 / stats-write=0 / stats-read=0 / vbv-maxrate=25000 / vbv-bufsize=25000 / vbv-init=0.9 / ipratio=1.40 / pbratio=1.30 / aq-mode=3 / aq-strength=1.00 / no-cutree / zone-count=0 / no-strict-cbr / qg-size=32 / no-rc-grain / qpmax=69 / qpmin=0 / no-const-vbv / sar=1 / overscan=0 / videoformat=5 / range=0 / colorprim=9 / transfer=16 / colormatrix=9 / chromaloc=0 / display-window=0 / cll=0,0 / min-luma=0 / max-luma=1023 / log2-max-poc-lsb=8 / vui-timing-info / vui-hrd-info / slices=1 / no-opt-qp-pps / no-opt-ref-list-length-pps / no-multi-pass-opt-rps / scenecut-bias=0.00 / hist-threshold=0.01 / no-opt-cu-delta-qp / no-aq-motion / no-hdr10 / hdr10-opt / no-dhdr10-opt / no-idr-recovery-sei / analysis-reuse-level=0 / analysis-save-reuse-level=0 / analysis-load-reuse-level=0 / scale-factor=0 / refine-intra=0 / refine-inter=0 / refine-mv=1 / refine-ctu-distortion=0 / no-limit-sao / ctu-info=0 / no-lowpass-dct / refine-analysis-type=0 / copy-pic=1 / max-ausize-factor=1.0 / no-dynamic-refine / no-single-sei / no-hevc-aq / no-svt / no-field / qp-adaptation-range=1.00 / no-scenecut-aware-qpconformance-window-offsets / right=0 / bottom=0
Default                        : Yes
Forced                         : No
Color range                    : Limited
Color primaries                : BT.2020
Transfer characteristics       : PQ
Matrix coefficients            : BT.2020 non-constant

Audio
ID                             : 2
Format                         : E-AC-3 JOC
Format/Info                    : Enhanced AC-3 with Joint Object Coding
Commercial name                : Dolby Digital Plus with Dolby Atmos
Codec ID                       : A_EAC3
Duration                       : 47 min 24 s
Bit rate mode                  : Constant
Bit rate                       : 768 kb/s
Channel(s)                     : 6 channels
Channel layout                 : L R C LFE Ls Rs
Sampling rate                  : 48.0 kHz
Frame rate                     : 31.250 FPS (1536 SPF)
Compression mode               : Lossy
Stream size                    : 260 MiB (3%)
Language                       : English
Service kind                   : Complete Main
Default                        : Yes
Forced                         : No
Complexity index               : 16
Number of dynamic objects      : 15
Bed channel count              : 1 channel
Bed channel configuration      : LFE

Text #1
ID                             : 3
Format                         : UTF-8
Codec ID                       : S_TEXT/UTF8
Codec ID/Info                  : UTF-8 Plain Text
Duration                       : 43 min 58 s
Bit rate                       : 47 b/s
Count of elements              : 492
Stream size                    : 15.4 KiB (0%)
Language                       : English
Default                        : No
Forced                         : No


Text #2
ID                             : 4
Format                         : UTF-8
Codec ID                       : S_TEXT/UTF8
Codec ID/Info                  : UTF-8 Plain Text
Duration                       : 44 min 51 s
Bit rate                       : 60 b/s
Count of elements              : 632
Stream size                    : 20.0 KiB (0%)
Title                          : SDH
Language                       : English
Default                        : No
Forced                         : No


Text #3
ID                             : 5
Format                         : UTF-8
Codec ID                       : S_TEXT/UTF8
Codec ID/Info                  : UTF-8 Plain Text
Duration                       : 46 min 24 s
Bit rate                       : 35 b/s
Count of elements              : 527
Stream size                    : 12.1 KiB (0%)
Title                          : Hong Kong
Language                       : Chinese
Default                        : No
Forced                         : No


Text #4
ID                             : 6
Format                         : UTF-8
Codec ID                       : S_TEXT/UTF8
Codec ID/Info                  : UTF-8 Plain Text
Duration                       : 46 min 24 s
Bit rate                       : 40 b/s
Count of elements              : 525
Stream size                    : 13.9 KiB (0%)
Title                          : Simplified
Language                       : Chinese
Default                        : No
Forced                         : No


Text #5
ID                             : 7
Format                         : UTF-8
Codec ID                       : S_TEXT/UTF8
Codec ID/Info                  : UTF-8 Plain Text
Duration                       : 46 min 24 s
Bit rate                       : 35 b/s
Count of elements              : 527
Stream size                    : 12.1 KiB (0%)
Title                          : Traditional
Language                       : Chinese
Default                        : No
Forced                         : No


Text #6
ID                             : 8
Format                         : UTF-8
Codec ID                       : S_TEXT/UTF8
Codec ID/Info                  : UTF-8 Plain Text
Duration                       : 46 min 23 s
Bit rate                       : 38 b/s
Count of elements              : 347
Stream size                    : 13.1 KiB (0%)
Language                       : Danish
Default                        : No
Forced                         : No


Text #7
ID                             : 9
Format                         : UTF-8
Codec ID                       : S_TEXT/UTF8
Codec ID/Info                  : UTF-8 Plain Text
Duration                       : 46 min 24 s
Bit rate                       : 44 b/s
Count of elements              : 502
Stream size                    : 15.1 KiB (0%)
Language                       : German
Default                        : No
Forced                         : No


Text #8
ID                             : 10
Format                         : UTF-8
Codec ID                       : S_TEXT/UTF8
Codec ID/Info                  : UTF-8 Plain Text
Duration                       : 46 min 24 s
Bit rate                       : 45 b/s
Count of elements              : 522
Stream size                    : 15.6 KiB (0%)
Language                       : Spanish
Default                        : No
Forced                         : No


Text #9
ID                             : 11
Format                         : UTF-8
Codec ID                       : S_TEXT/UTF8
Codec ID/Info                  : UTF-8 Plain Text
Duration                       : 46 min 24 s
Bit rate                       : 48 b/s
Count of elements              : 524
Stream size                    : 16.5 KiB (0%)
Title                          : Latin American
Language                       : Spanish
Default                        : No
Forced                         : No


Text #10
ID                             : 12
Format                         : UTF-8
Codec ID                       : S_TEXT/UTF8
Codec ID/Info                  : UTF-8 Plain Text
Duration                       : 43 min 58 s
Bit rate                       : 55 b/s
Count of elements              : 491
Stream size                    : 18.0 KiB (0%)
Title                          : Latin American
Language                       : Spanish
Default                        : No
Forced                         : No


Text #11
ID                             : 13
Format                         : UTF-8
Codec ID                       : S_TEXT/UTF8
Codec ID/Info                  : UTF-8 Plain Text
Duration                       : 46 min 24 s
Bit rate                       : 40 b/s
Count of elements              : 507
Stream size                    : 13.9 KiB (0%)
Language                       : French
Default                        : No
Forced                         : No


Text #12
ID                             : 14
Format                         : UTF-8
Codec ID                       : S_TEXT/UTF8
Codec ID/Info                  : UTF-8 Plain Text
Duration                       : 43 min 58 s
Bit rate                       : 42 b/s
Count of elements              : 506
Stream size                    : 13.8 KiB (0%)
Title                          : Canadian
Language                       : French
Default                        : No
Forced                         : No


Text #13
ID                             : 15
Format                         : UTF-8
Codec ID                       : S_TEXT/UTF8
Codec ID/Info                  : UTF-8 Plain Text
Duration                       : 46 min 24 s
Bit rate                       : 46 b/s
Count of elements              : 521
Stream size                    : 15.7 KiB (0%)
Language                       : Italian
Default                        : No
Forced                         : No


Text #14
ID                             : 16
Format                         : UTF-8
Codec ID                       : S_TEXT/UTF8
Codec ID/Info                  : UTF-8 Plain Text
Duration                       : 46 min 24 s
Bit rate                       : 38 b/s
Count of elements              : 505
Stream size                    : 13.2 KiB (0%)
Language                       : Japanese
Default                        : No
Forced                         : No


Text #15
ID                             : 17
Format                         : UTF-8
Codec ID                       : S_TEXT/UTF8
Codec ID/Info                  : UTF-8 Plain Text
Duration                       : 46 min 31 s
Bit rate                       : 44 b/s
Count of elements              : 525
Stream size                    : 15.2 KiB (0%)
Language                       : Korean
Default                        : No
Forced                         : No


Text #16
ID                             : 18
Format                         : UTF-8
Codec ID                       : S_TEXT/UTF8
Codec ID/Info                  : UTF-8 Plain Text
Duration                       : 46 min 24 s
Bit rate                       : 40 b/s
Count of elements              : 473
Stream size                    : 13.8 KiB (0%)
Language                       : Dutch
Default                        : No
Forced                         : No


Text #17
ID                             : 19
Format                         : UTF-8
Codec ID                       : S_TEXT/UTF8
Codec ID/Info                  : UTF-8 Plain Text
Duration                       : 46 min 24 s
Bit rate                       : 43 b/s
Count of elements              : 520
Stream size                    : 14.9 KiB (0%)
Language                       : Norwegian
Default                        : No
Forced                         : No


Text #18
ID                             : 20
Format                         : UTF-8
Codec ID                       : S_TEXT/UTF8
Codec ID/Info                  : UTF-8 Plain Text
Duration                       : 46 min 24 s
Bit rate                       : 42 b/s
Count of elements              : 508
Stream size                    : 14.3 KiB (0%)
Language                       : Polish
Default                        : No
Forced                         : No


Text #19
ID                             : 21
Format                         : UTF-8
Codec ID                       : S_TEXT/UTF8
Codec ID/Info                  : UTF-8 Plain Text
Duration                       : 46 min 24 s
Bit rate                       : 47 b/s
Count of elements              : 515
Stream size                    : 16.3 KiB (0%)
Language                       : Portuguese
Default                        : No
Forced                         : No


Text #20
ID                             : 22
Format                         : UTF-8
Codec ID                       : S_TEXT/UTF8
Codec ID/Info                  : UTF-8 Plain Text
Duration                       : 46 min 24 s
Bit rate                       : 46 b/s
Count of elements              : 523
Stream size                    : 15.9 KiB (0%)
Title                          : Brazilian
Language                       : Portuguese
Default                        : No
Forced                         : No


Text #21
ID                             : 23
Format                         : UTF-8
Codec ID                       : S_TEXT/UTF8
Codec ID/Info                  : UTF-8 Plain Text
Duration                       : 47 min 17 s
Bit rate                       : 60 b/s
Count of elements              : 674
Stream size                    : 21.1 KiB (0%)
Title                          : Brazilian
Language                       : Portuguese
Default                        : No
Forced                         : No


Text #22
ID                             : 24
Format                         : UTF-8
Codec ID                       : S_TEXT/UTF8
Codec ID/Info                  : UTF-8 Plain Text
Duration                       : 46 min 24 s
Bit rate                       : 41 b/s
Count of elements              : 520
Stream size                    : 14.2 KiB (0%)
Language                       : Finnish
Default                        : No
Forced                         : No


Text #23
ID                             : 25
Format                         : UTF-8
Codec ID                       : S_TEXT/UTF8
Codec ID/Info                  : UTF-8 Plain Text
Duration                       : 46 min 24 s
Bit rate                       : 40 b/s
Count of elements              : 516
Stream size                    : 13.8 KiB (0%)
Language                       : Swedish
Default                        : No
Forced                         : No


Menu
00:45:33.417                   : en:Credits

蓝光高清网提示您 点击下方附件名称 即可开始下载

多版本下载时请注意区分

鹰眼4K.Hawkeye.2021.S01.2160p.DSNP.WEB-DL.x265.10bit.HDR.DDP5.1.Atmos下载

Hawkeye.2021.S01E01.2160p.DSNP.WEB-DL.x265.10bit.HDR.DDP5.1.Atmos-TEPES【7.42 GB】
Hawkeye.2021.S01E01.2160p.DSNP.WEB-DL.x265.10bit.HDR.DDP5.1.Atmos-TEPES[rartv]-[rarbg.to].torrent (19.23 KB)
第1集中文字幕下载
Hawkeye.2021.S01E02.Hide.and.Seek.1080p.DSNP.WEB-DL.DDP5.1.Atmos.H.264-TEPES.YXYMENG.ass (106.26 KB)
加入蓝光高清网VIP会员  无限制下载本站所有资源---点这里

资源下载、资源播放、字幕使用、无法下载等常见问题---点这里
回复

使用道具 举报

全部回复9

再会未来 发表于 2021-11-26 19:34:52

再会未来 沙发

2021-11-26 19:34:52

不错的分享
回复 支持 反对

使用道具 举报

fu83652254 发表于 2021-11-27 11:16:34

fu83652254 板凳

2021-11-27 11:16:34

感谢楼主分享~
回复 支持 反对

使用道具 举报

ggang1 发表于 2021-11-30 09:45:16

ggang1 地板

2021-11-30 09:45:16

謝分享!感謝分享!
回复 支持 反对

使用道具 举报

192954 发表于 2021-12-9 09:24:49

192954 5#

2021-12-9 09:24:49

谢谢楼主分享
回复 支持 反对

使用道具 举报

sand123 发表于 2021-12-16 17:39:03

sand123 6#

2021-12-16 17:39:03

感谢楼主分享
回复 支持 反对

使用道具 举报

sand123 发表于 2021-12-17 17:47:33

sand123 7#

2021-12-17 17:47:33

感谢楼主分享
回复 支持 反对

使用道具 举报

gdlmxia 发表于 2021-12-27 17:36:52

gdlmxia 8#

2021-12-27 17:36:52

太好啦&萬分感謝版主的無私發佈分享%
回复 支持 反对

使用道具 举报

ggang1 发表于 2021-12-28 14:29:14

ggang1 9#

2021-12-28 14:29:14

萬分感謝版主的無私
回复 支持 反对

使用道具 举报

ggang1 发表于 2021-12-31 14:58:00

ggang1 10#

2021-12-31 14:58:00

萬分感謝版主的無私
回复 支持 反对

使用道具 举报

发表回复

您需要登录后才可以回帖 登录 | 立即注册

返回列表 本版积分规则

  • 发帖

  • 在线客服

  • 微信

  • 客户端

  • 返回顶部