蓝光高清网

开启左侧

South.Park.Post.Covid.2021.2160p.WEB-DL.x265.10bit.SDR.DDP5.1-4k电影下载—4.07 GB

[复制链接]

2021-12-1 23:42:08 4212 2

蓝鸟 发表于 2021-11-26 21:04:48 |阅读模式

蓝鸟 楼主

2021-11-26 21:04:48

South.Park.Post.Covid
上映时间:2021年
类型:喜剧 动画 
地区:美国 
导演:特雷·帕克马特·斯通
主演:
画质标准:4K SDR  封装音轨:Dolby TrueHD 5.1 Dolby Atmos 
豆瓣评分:7.8分
简       介
  H+ e! {/ X* f, X: {" m" e% v
5 K2 w+ {. U, p" s

9 m, P% _( S! ^# ^# @5 t       经历过疫情的孩子们都经历了什么?斯坦、凯尔、卡特曼和肯尼活了下来,但在 Covid 后永远不会是同一个。- S# g3 k- e' v9 j1 r& D8 y

$ N/ i5 w" k+ \* r0 t" D
8 X; U8 L( s% U3 @1 ^
影片参数1 A6 m' t! Y  K( ]; V
South.Park.Post.Covid.2021.2160p.WEB-DL.x265.10bit.SDR.DDP5.1-4k电影信息
* u: t; y9 F- H! y0 ^5 c2 T; EVideo
0 D) x- U' L2 \# uID : 15 b6 l, q" I+ h' j. W
Format : HEVC+ Q& N3 ]4 ~% O, i  M  u
Format/Info : High Efficiency Video Coding
; E) C2 l" z& fFormat profile : Main@L5@Main
4 r1 Y9 `3 ?" H5 R/ UCodec ID : V_MPEGH/ISO/HEVC; Z. {/ D' r9 {
Duration : 59 min 27 s
! T5 ]( g$ f! g* IBit rate : 9 165 kb/s
1 e# ]9 ^' ]* J+ Y2 U1 cWidth : 3 840 pixels
7 q0 E7 `% W, M" x1 r1 l' g" EHeight : 2 160 pixels
( H+ C! e5 }9 g/ w" Z) pDisplay aspect ratio : 16:9
7 T! `9 g! X: N  J! Y2 OFrame rate mode : Constant! }! a% t& x) O9 m' g
Frame rate : 23.976 (24000/1001) FPS( v& q/ h& n3 \2 r( w, Z
Color space : YUV
! W) q: V  v# S' l$ VChroma subsampling : 4:2:0# B  T; |/ h( u/ r5 A
Bit depth : 8 bits* O4 k9 W5 @' Q9 F+ ^( z
Bits/(Pixel*Frame) : 0.0468 r, E2 F. |$ n/ t  J
Stream size : 3.81 GiB (93%)
% D* e% r- l' t+ jWriting library : x265 3.5+1-f0c1022b6:[Linux][GCC 9.3.0][64 bit] 8bit8 s* g/ }7 u) H! n9 i. K9 }
Encoding settings : cpuid=1111039 / frame-threads=3 / wpp / no-pmode / no-pme / no-psnr / no-ssim / log-level=2 / input-csp=1 / input-res=3840x2160 / interlace=0 / total-frames=0 / level-idc=0 / high-tier=1 / uhd-bd=0 / ref=4 / no-allow-non-conformance / repeat-headers / annexb / no-aud / no-eob / no-eos / no-hrd / info / hash=0 / no-temporal-layers / open-gop / min-keyint=48 / keyint=48 / gop-lookahead=0 / bframes=4 / b-adapt=2 / b-pyramid / bframe-bias=0 / rc-lookahead=25 / lookahead-slices=4 / scenecut=0 / hist-scenecut=0 / radl=0 / no-splice / no-intra-refresh / ctu=64 / min-cu-size=8 / rect / no-amp / max-tu-size=32 / tu-inter-depth=1 / tu-intra-depth=1 / limit-tu=0 / rdoq-level=2 / dynamic-rd=0.00 / no-ssim-rd / signhide / no-tskip / nr-intra=0 / nr-inter=0 / no-constrained-intra / strong-intra-smoothing / max-merge=3 / limit-refs=3 / limit-modes / me=3 / subme=3 / merange=57 / temporal-mvp / no-frame-dup / no-hme / weightp / no-weightb / no-analyze-src-pics / deblock=0:0 / sao / no-sao-non-deblock / rd=4 / selective-sao=4 / no-early-skip / rskip / no-fast-intra / no-tskip-fast / no-cu-lossless / no-b-intra / no-splitrd-skip / rdpenalty=0 / psy-rd=2.00 / psy-rdoq=1.00 / no-rd-refine / no-lossless / cbqpoffs=0 / crqpoffs=0 / rc=abr / bitrate=9505 / qcomp=0.60 / qpstep=4 / stats-write=0 / stats-read=2 / cplxblur=20.0 / qblur=0.5 / vbv-maxrate=11406 / vbv-bufsize=9505 / vbv-init=0.8 / min-vbv-fullness=50.0 / max-vbv-fullness=80.0 / ipratio=1.40 / pbratio=1.30 / aq-mode=2 / aq-strength=1.00 / cutree / zone-count=0 / no-strict-cbr / qg-size=32 / no-rc-grain / qpmax=69 / qpmin=0 / no-const-vbv / sar=1 / overscan=0 / videoformat=5 / range=0 / colorprim=1 / transfer=1 / colormatrix=1 / chromaloc=0 / display-window=0 / cll=0,0 / min-luma=0 / max-luma=255 / log2-max-poc-lsb=8 / vui-timing-info / vui-hrd-info / slices=1 / no-opt-qp-pps / no-opt-ref-list-length-pps / no-multi-pass-opt-rps / scenecut-bias=0.05 / hist-threshold=0.03 / no-opt-cu-delta-qp / no-aq-motion / no-hdr10 / no-hdr10-opt / no-dhdr10-opt / no-idr-recovery-sei / analysis-reuse-level=0 / analysis-save-reuse-level=0 / analysis-load-reuse-level=0 / scale-factor=0 / refine-intra=0 / refine-inter=0 / refine-mv=1 / refine-ctu-distortion=0 / no-limit-sao / ctu-info=0 / no-lowpass-dct / refine-analysis-type=0 / copy-pic=1 / max-ausize-factor=1.0 / no-dynamic-refine / no-single-sei / no-hevc-aq / no-svt / no-field / qp-adaptation-range=1.00 / scenecut-aware-qp=0conformance-window-offsets / right=0 / bottom=0 / decoder-max-rate=0 / no-vbv-live-multi-pass  D/ B+ }. T7 V+ q& \: G! u7 n6 a  Y
Default : Yes
7 z) G4 j- b# |( U& _Forced : No
) I# @. e% y% V- F, H2 p5 eColor range : Limited2 j3 d* S+ Y! `1 ~. h
Color primaries : BT.709
7 x# S$ B( A' O9 p4 [5 `4 [; G" t$ ]- oTransfer characteristics : BT.7097 x( w' l7 W) A& {1 Z
Matrix coefficients : BT.709' @/ P+ i! s4 x0 Y" N$ s
. ?- G: B" y0 @4 a# w$ Q

& X' e; M$ s" V/ [& |: E. W  hAudio9 B% C6 u/ W" L" s0 G
ID : 2
0 }# E* _; _; m6 yFormat : E-AC-32 q! o; z$ G" j& J
Format/Info : Enhanced AC-3
5 m0 B: W; n6 {7 cCommercial name : Dolby Digital Plus' b5 o+ C7 R- c2 ^$ N
Codec ID : A_EAC3+ A: J1 S+ H! B! w- `; e. G+ i; u
Duration : 59 min 27 s
! \2 j( b4 F1 c* DBit rate mode : Constant
7 r- m4 W- `: y$ kBit rate : 640 kb/s
# W% U& b+ L  y  HChannel(s) : 6 channels0 @" p' m$ O: w! J# T, z( I  z
Channel layout : L R C LFE Ls Rs
( p6 J: U  R- x! n. F) V0 {  Y" L# ySampling rate : 48.0 kHz
/ r, H2 {2 U  v9 G; ~5 p2 W& _, HFrame rate : 31.250 FPS (1536 SPF)
5 j6 i" n3 \! s' G' l3 y8 GCompression mode : Lossy( Y( [- v) N7 V, K* r
Stream size : 272 MiB (7%)
8 W4 q5 \( ^4 _$ p, JLanguage : English
  N  ?  B4 P3 K" W" D- ~5 T; W1 L1 RService kind : Complete Main
- z: }& P. e6 T* TDefault : Yes
" S7 s/ Z5 Z" C7 xForced : No
  ?# L' G* q1 D  @/ H8 u9 _
% K# A- \, ]5 T+ {/ D$ T

3 u+ j. W7 A' ~7 f) T; p  ?( KText #1
0 e" m* a* K2 w9 tID : 3  l: ]" H  l. Q0 \( a8 z
Format : UTF-8
9 y' m2 M$ Q! ?7 zCodec ID : S_TEXT/UTF83 c1 S2 Z; p6 u7 \7 ~+ R( d
Codec ID/Info : UTF-8 Plain Text* u' z/ a6 M: z
Duration : 58 min 36 s# s3 m+ E* H. U% {" J+ t
Bit rate : 95 b/s
9 f& J6 t; [0 jCount of elements : 1191
1 {2 s8 J6 v0 B* z: sStream size : 41.0 KiB (0%)
6 K$ U. e' b1 L; \3 }+ MLanguage : English
1 Y0 r3 U) H  ADefault : No
: U' f, b8 V" ^# e9 r# aForced : No* [1 \% n" ^9 q" B& Q8 h& }' T
: o' n2 O9 ?! l, g9 K8 v

1 C9 l0 B6 |$ B% \1 MText #2& S/ d$ }+ |* t6 T- t
ID : 4
3 N7 q% @/ v& b9 g( I- F( ?Format : UTF-8. x' X- Q- N7 X5 @; f0 R4 L
Codec ID : S_TEXT/UTF89 v1 v& S  G, F& Y
Codec ID/Info : UTF-8 Plain Text
, U2 j5 q- r# O0 pDuration : 59 min 21 s
! m9 J- j* d8 K6 O* x, X( U: f: o7 EBit rate : 102 b/s& I" C5 g$ I, d' o! M3 d/ U
Count of elements : 1337
$ m  g9 G; M+ |. ]; e; w( _5 c' fStream size : 44.6 KiB (0%)' F# `& q# E, H9 a/ x) C
Title : SDH
8 m- w- [/ \' ?/ TLanguage : English
2 c8 Q; ?+ A/ cDefault : No
0 {; P( ^# K3 g* @. H* p0 d5 F$ CForced : No

9 ~+ K/ H( R" Z7 s

3 T0 a/ n1 V. o% N0 V6 B蓝光高清网提示您 点击下方附件名称 即可开始下载( D+ O' x( b; G1 v- J5 c7 I
' u1 i5 f. ^0 k) i4 x4 O+ _
4 K( k+ Z+ d* z* q" }2 V
South.Park.Post.Covid.2021.2160p.WEB-DL.x265.10bit.SDR.DDP5.1-4k电影下载
- H) K4 `! Y4 ]2 C8 I6 m
! L! g' U. t( |, ~

9 {& ]* m" g6 ~South.Park.Post.Covid.2021.2160p.WEB-DL.x265.10bit.SDR.DDP5.1【4.07 GB】5 K( G( R0 f, B, b  o1 Q' c9 p3 v

0 k4 R/ I% {, b! _! S5 @5 Y0 x South.Park.Post.Covid.2021.2160p.WEB-DL.x265.10bit.SDR.DDP5.1-TEPES.torrent (21.03 KB)
加入蓝光高清网VIP会员  无限制下载本站所有资源---点这里

资源下载、资源播放、字幕使用、无法下载等常见问题---点这里
回复

使用道具 举报

全部回复2

dongshouba 发表于 2021-11-27 00:07:09

dongshouba 沙发

2021-11-27 00:07:09

感谢分享
回复

使用道具 举报

yishengchennuo手机认证 发表于 2021-12-1 23:42:08

yishengchennuo 板凳

2021-12-1 23:42:08

好久没看动画片了。谢谢分享
回复 支持 反对

使用道具 举报

发表回复

您需要登录后才可以回帖 登录 | 立即注册

返回列表 本版积分规则

  • 发帖

  • 在线客服

  • 微信

  • 客户端

  • 返回顶部