蓝光高清网

开启左侧

760号犯人 4k.The.Mauritanian.2021.2160p.UHD.BluRay.x265.10bit.HDR.DTS-HD.MA.7.1-4k电

[复制链接]

2021-11-28 00:17:11 5518 2

蓝鸟 发表于 2021-11-26 21:08:50 |阅读模式

蓝鸟 楼主

2021-11-26 21:08:50

760号犯人
上映时间:2021年
类型:剧情 惊悚 
地区:美国 
导演:凯文·麦克唐纳
主演:塔哈·拉希姆 / 朱迪·福斯特 / 本尼迪克特·康伯巴奇 / 扎克瑞·莱维 / 谢琳·伍德蕾
画质标准:4K HDR  封装音轨:Dolby TrueHD 7.1 
豆瓣评分:7.3分
简       介! K$ d. \) p$ t7 c# X

( c% x4 p$ ?7 Z& K, @' @" g' _9 |

' Z5 c, [- @+ B2 ^* P  影片改编自Mohamedou Ould Slahi的回忆录《关塔那摩日记》,讲述Slahi(塔哈饰)被美国政府俘虏,在毫无指控与判决的情况下被关进了监狱,他失去了希望。Slahi寻得辩护律师南希·霍兰德(福斯特饰)与助手特里·邓肯(伍德蕾饰)的帮助,他们在面对无数障碍的情况下,一同追求正义。在富有争议的主张及斯图尔特·库什中尉(康伯巴奇饰)揭露的证据下,一个令人震惊的阴谋露出水面。
3 O- {$ I, A+ ^- y4 W- w( j( s; K# B. ]3 F( ^& C
- h$ o) x& J$ ~0 m9 W7 e
影片参数" r4 i8 A: c8 N& A) O6 G
诬罪审判(港) / 失控的审判(台) / 毛里塔尼亚人 / 760号囚犯 / 第760号囚犯 / Guantanamo Diary / Prisoner 760/760号犯人4k.The.Mauritanian.2021.2160p.UHD.BluRay.x265.10bit.HDR.DTS-HD.MA.7.1-4k电影信息9 n, Q9 c/ Q5 @8 d7 p  ^2 Z
Video/ Y4 u; s% e& {9 c
ID : 1
& i8 E4 F7 M; R1 i. [Format : HEVC( e- J8 G+ Q. ?0 x& w
Format/Info : High Efficiency Video Coding7 R( t- {# I8 V5 p' }2 G3 G6 K
Format profile : Main 10@L5.1@High) s' p# d3 R2 j8 F7 ]7 ]3 ~
HDR format : SMPTE ST 2086, HDR10 compatible
8 M" `4 K" ]& ]1 v- VCodec ID : V_MPEGH/ISO/HEVC+ u/ b7 g- Z) Y' e2 Q! T( [
Duration : 2 h 9 min
* B6 w( h, P) J3 ?' kBit rate : 24.1 Mb/s
6 h, x4 e  l  i" r. D% |, M; C: VWidth : 3 840 pixels  \+ I3 F' ^& t2 ]+ k+ _. A  n
Height : 2 076 pixels
* w3 |' r3 B9 X. ADisplay aspect ratio : 1.85:1
1 g) A& k; C; ]2 xFrame rate mode : Constant
# `  J" b! L+ P% JFrame rate : 23.976 (24000/1001) FPS: Y6 t' r" ^6 w2 Z
Color space : YUV' r7 w. y, Q+ {4 |3 _0 n
Chroma subsampling : 4:2:0 (Type 2)
& r4 u( D7 o/ J) z- u/ ^Bit depth : 10 bits" \7 N$ E# d' T$ a. [! l+ ]: |
Bits/(Pixel*Frame) : 0.126: ~" H9 V5 s0 ]1 f5 p
Stream size : 21.8 GiB (86%)) i! L) _6 p7 q6 y& w) w
Writing library : x265 3.5+20-17839cc0d:[Windows][MSVC 1900][64 bit] 10bit5 d8 ^9 x0 M. R% c7 q
Encoding settings : cpuid=1111039 / frame-threads=6 / numa-pools=32 / wpp / no-pmode / no-pme / no-psnr / no-ssim / log-level=2 / input-csp=1 / input-res=3840x2076 / interlace=0 / total-frames=185847 / level-idc=51 / high-tier=1 / uhd-bd=0 / ref=4 / no-allow-non-conformance / repeat-headers / annexb / aud / no-eob / no-eos / hrd / info / hash=0 / no-temporal-layers / no-open-gop / min-keyint=23 / keyint=250 / gop-lookahead=0 / bframes=4 / b-adapt=2 / b-pyramid / bframe-bias=0 / rc-lookahead=25 / lookahead-slices=4 / scenecut=40 / no-hist-scenecut / radl=0 / no-splice / no-intra-refresh / ctu=64 / min-cu-size=8 / rect / no-amp / max-tu-size=32 / tu-inter-depth=1 / tu-intra-depth=1 / limit-tu=0 / rdoq-level=2 / dynamic-rd=0.00 / no-ssim-rd / signhide / no-tskip / nr-intra=0 / nr-inter=0 / no-constrained-intra / no-strong-intra-smoothing / max-merge=3 / limit-refs=3 / limit-modes / me=3 / subme=3 / merange=57 / temporal-mvp / no-frame-dup / no-hme / weightp / no-weightb / no-analyze-src-pics / deblock=-3:-3 / no-sao / no-sao-non-deblock / rd=4 / selective-sao=0 / no-early-skip / rskip / no-fast-intra / no-tskip-fast / no-cu-lossless / no-b-intra / no-splitrd-skip / rdpenalty=0 / psy-rd=2.00 / psy-rdoq=1.00 / no-rd-refine / no-lossless / cbqpoffs=0 / crqpoffs=0 / rc=crf / crf=12.0 / qcomp=0.60 / qpstep=4 / stats-write=0 / stats-read=0 / vbv-maxrate=160000 / vbv-bufsize=160000 / vbv-init=0.9 / min-vbv-fullness=50.0 / max-vbv-fullness=80.0 / crf-max=0.0 / crf-min=0.0 / ipratio=1.40 / pbratio=1.30 / aq-mode=2 / aq-strength=0.80 / cutree / zone-count=0 / no-strict-cbr / qg-size=32 / no-rc-grain / qpmax=69 / qpmin=0 / no-const-vbv / sar=1 / overscan=0 / videoformat=5 / range=0 / colorprim=9 / transfer=16 / colormatrix=9 / chromaloc=1 / chromaloc-top=2 / chromaloc-bottom=2 / display-window=0 / master-display=G(8500,39850)B(6550,2300)R(35400,14600)WP(15635,16450)L(10000000,50) / cll=594,109 / min-luma=0 / max-luma=1023 / log2-max-poc-lsb=8 / vui-timing-info / vui-hrd-info / slices=1 / no-opt-qp-pps / no-opt-ref-list-length-pps / no-multi-pass-opt-rps / scenecut-bias=0.05 / hist-threshold=0.03 / no-opt-cu-delta-qp / no-aq-motion / hdr10 / hdr10-opt / no-dhdr10-opt / no-idr-recovery-sei / analysis-reuse-level=0 / analysis-save-reuse-level=0 / analysis-load-reuse-level=0 / scale-factor=0 / refine-intra=0 / refine-inter=0 / refine-mv=1 / refine-ctu-distortion=0 / no-limit-sao / ctu-info=0 / no-lowpass-dct / refine-analysis-type=0 / copy-pic=1 / max-ausize-factor=1.0 / no-dynamic-refine / no-single-sei / no-hevc-aq / no-svt / no-field / qp-adaptation-range=1.00 / scenecut-aware-qp=0conformance-window-offsets / right=0 / bottom=0 / decoder-max-rate=0 / no-vbv-live-multi-pass8 D6 `# D: I9 C3 y  R% e2 Q1 c" Z
Default : Yes0 `- ?! Y$ l( ]! d8 J/ S' J
Forced : No
" V" M! Q& f6 ^7 ]/ PColor range : Limited2 I3 c+ d, ?: o- G% e5 K: H# N
Color primaries : BT.20202 [5 b5 m3 d: I% R
Transfer characteristics : PQ, f# M* ~# B, t
Matrix coefficients : BT.2020 non-constant
5 _3 u' ?1 Q  C" [2 A$ XMastering display color primaries : BT.2020% B9 l; T5 |6 {
Mastering display luminance : min: 0.0050 cd/m2, max: 1000 cd/m26 _: \- e) U, ~% o  L
Maximum Content Light Level : 594 cd/m2* T2 ~: W$ V' r- }; }
Maximum Frame-Average Light Level : 109 cd/m2
5 {& C( |& X' o4 ]- m& n
# ]* K! _5 H9 a) R: c& x3 _
  A& E/ D1 b$ N3 O5 a' O
Audio
( j4 c: C! Z, [- wID : 2$ I+ |- K6 `+ S9 C5 k
Format : DTS XLL( ^9 o3 O) c, q. h
Format/Info : Digital Theater Systems
  R& ~: C2 [$ {Commercial name : DTS-HD Master Audio
5 y; R) @, O9 JCodec ID : A_DTS  \; \1 {6 }4 I' k8 l: D0 u( b% X  h
Duration : 2 h 9 min
/ [0 a1 }+ a6 |* j1 ^0 BBit rate mode : Variable. e3 z3 ^& G- C+ _
Bit rate : 4 026 kb/s
3 m/ V4 X, v+ H! Z8 A% q* jChannel(s) : 8 channels) I: |8 L6 P; a
Channel layout : C L R LFE Lb Rb Lss Rss
8 O7 J  N7 @7 R- R% z+ HSampling rate : 48.0 kHz3 }' N; V: {& \
Frame rate : 93.750 FPS (512 SPF)$ g; o0 B$ m: A" p. U; h( ]
Bit depth : 24 bits
1 c4 ^9 v! d6 |) @Compression mode : Lossless
) |* ^3 h0 o1 U: SStream size : 3.64 GiB (14%)
8 m% N* m2 l% GTitle : DTS-HD MA 7.1, }( g, i& `* A  A+ c
Language : English$ F$ l7 k/ r( E/ v7 z% B
Default : Yes
( O3 a) T* l. \4 NForced : No
+ T% {+ ~( ]7 i* s( }: |; N, R  E
7 H- M+ u% ~) X; X- l# d
Text #1; q# d- d; |8 r) J
ID : 3" b; ~" {! \4 @6 |0 m
Format : UTF-80 J; g4 F) v+ c1 e( F+ |4 o. l, j
Codec ID : S_TEXT/UTF86 i' o, Y) q7 S2 j! X2 w
Codec ID/Info : UTF-8 Plain Text& d, G* \- d9 e0 h* A0 \
Duration : 2 h 7 min( M( {; c3 ^& x: f
Bit rate : 6 b/s
" l1 l# k/ O' t7 E+ S3 n/ ~9 gCount of elements : 228& z( D' B. n' Q0 L6 r& Q
Stream size : 6.46 KiB (0%)
7 U1 V6 ]! h- ]) B5 l. m9 W  B3 C8 rTitle : Forced SRT9 n+ U7 i7 E! H5 A& G) H% \
Language : English0 C- |. {  s- Z! r, k
Default : Yes1 L* I% h& c: m7 C9 C$ k
Forced : Yes
0 X8 `3 A0 F/ @% o3 D9 v% A8 B- X4 _( O5 B1 l! s

; t5 g# ~5 I. H- _- G3 PText #26 l! e7 D+ r: E7 N
ID : 43 R* a) u# E1 d* q/ Q- L
Format : UTF-8
& g0 w( u; C2 R+ |1 t  y' x( ?Codec ID : S_TEXT/UTF8
) f. Q9 m" F* s8 Y% v: ICodec ID/Info : UTF-8 Plain Text: T& V  C( c' G" O7 C8 ?
Duration : 2 h 7 min
) L4 l  S' v( }3 u" X9 u6 a, oBit rate : 61 b/s
4 U( \& W2 M; X% FCount of elements : 1680
0 d7 s2 Y  j* B" W5 h; [Stream size : 57.2 KiB (0%)* y7 {7 h  q1 h* h. k) K* `& M: J
Title : Stripped SRT. q( J9 ~; w; ?# p5 W3 v
Language : English
8 A2 e+ x2 |3 H! }/ r  A7 J' dDefault : No
% K9 T4 P5 ?* J$ S! ]! ]: s. O  cForced : No
0 v- m2 C$ B( P2 P5 O$ |% R" ?! D; Q1 h3 @

. i7 a: x: \& g* |9 Z2 BText #3& w8 l- t$ Q2 I& c$ `
ID : 5
# d$ k: r5 s0 eFormat : UTF-8
5 T& }9 I8 D" E* ]Codec ID : S_TEXT/UTF8% s  W6 S0 u. x. }: Y. v
Codec ID/Info : UTF-8 Plain Text0 r) m& V! L6 g' A, j5 S, x  X) \
Duration : 2 h 7 min) z/ v- d- e6 g/ K+ p! _! S
Bit rate : 66 b/s
! e0 H( S0 A, z* ]' F+ U$ m5 h& tCount of elements : 18475 r! s5 j0 N* M- \& c
Stream size : 62.6 KiB (0%)
1 @/ S5 O2 f/ h+ u* xTitle : SDH SRT
0 g$ e$ T2 a8 Y- D- Z0 @/ T, [Language : English8 d- e+ l  m5 h9 [
Default : No
( }) U  |  a9 `% bForced : No
& p3 w1 r5 m% W+ `# I
. V5 K; T3 O+ z: T5 j
$ V9 a) k$ B6 B) q: d
Text #4
$ [8 q' z" L+ J2 ^3 V  tID : 6
& n" k, [0 M' _& u( y" SFormat : PGS% O# ?& x8 r5 l- g' ^
Muxing mode : zlib5 |$ v2 \4 L' F2 q
Codec ID : S_HDMV/PGS
% }1 q2 V9 k- [/ M# F+ ZCodec ID/Info : Picture based subtitle format used on BDs/HD-DVDs: N7 n  o" |0 ]
Duration : 2 h 7 min
) r+ W& R  w7 nBit rate : 4 556 b/s3 W3 H' @# c5 n6 u
Count of elements : 456
( s5 m+ k: J* U- [& n8 C/ G: dStream size : 4.16 MiB (0%)
: E. l  [0 \3 y8 N: o# [Title : Forced
- ~1 G0 ]' V9 ]6 }5 bLanguage : English
3 w9 n% J# E7 E$ G1 nDefault : No3 i: ]' Z0 F; A
Forced : No+ a  K: X" Z% [- b
) _2 l  u6 a4 y) M( ]9 O* X" y- m& i
, e5 Z3 x& {, q7 G# h3 q
Text #5% J4 u( `2 H2 {+ y  K
ID : 7
2 u+ V6 b9 K6 k5 b( h4 K6 r* iFormat : PGS
3 C( m8 w+ C; d" d) EMuxing mode : zlib# G+ p$ F$ h( @$ y" g2 F* E" I
Codec ID : S_HDMV/PGS
0 p6 j: P% b, w, [+ r+ cCodec ID/Info : Picture based subtitle format used on BDs/HD-DVDs
9 s6 d9 m8 O5 ?  k3 h8 LDuration : 2 h 7 min4 Q2 v$ Q' Z6 q' ?* d7 W! _9 l
Bit rate : 42.0 kb/s3 b! }/ ?/ q" T: m5 q* D- S% h
Count of elements : 36926 C  t- A) C- H) k
Stream size : 38.3 MiB (0%)
7 P- k, I$ t9 h  B$ w0 t  @, G* X9 sTitle : SDH
& @# \1 E  J4 k+ H4 |Language : English; v7 f3 B+ ^- B
Default : No
& C6 i2 P7 i, EForced : No
6 ^( U. ?0 s, P- R1 Z' E' I) M5 B! ]& K: T  u# L/ g$ @
, Q' z2 u$ j( h  s5 A# U7 l
Menu
( y# J( }1 _6 F" [% P$ \/ J00:00:00.000 : en:Chapter 01
0 M0 a2 n, l. ?4 b6 }00:05:54.396 : en:Chapter 02  @  k8 Y1 Z4 u
00:13:11.332 : en:Chapter 034 U4 Z1 L1 Z* {. S! }
00:23:20.649 : en:Chapter 04
0 c( q& K; r8 j/ ^% g5 s1 ^0 m  @00:28:50.896 : en:Chapter 05
4 \: [% d+ a: N1 e8 C' p7 b; Q00:37:40.675 : en:Chapter 06
% t( T) W9 n& Q! A' n, u* k; o00:44:12.483 : en:Chapter 07
; j1 F& j. L2 P7 c3 y0 S; z00:54:47.701 : en:Chapter 08
$ p, N" p+ h! w4 f* s01:02:53.228 : en:Chapter 09
, o4 `' n- x- r01:12:17.792 : en:Chapter 10& A. p! S# o$ p* M0 |; i) L
01:21:23.003 : en:Chapter 11
4 H, y' G. e; t2 [01:31:00.246 : en:Chapter 12
8 Y& R7 x- S/ f, R% I01:39:35.469 : en:Chapter 13: A$ v' B+ s$ |8 T" O& `
01:45:45.965 : en:Chapter 146 s- W0 w* X5 P8 @9 c* G
01:53:48.071 : en:Chapter 15
. _: x- ^# P. Q+ H02:03:57.430 : en:Chapter 16

% `/ @# Y5 p  x" s) _& Q: v- e! i5 u. z2 X9 z1 }' J. W6 V' O2 d) Z1 U
蓝光高清网提示您 点击下方附件名称 即可开始下载
* v# m. S) i  j6 `5 C4 _3 |+ L+ T, v1 M" F8 q9 N6 m6 \

# @0 U% g* j" Q  F% {诬罪审判(港) / 失控的审判(台) / 毛里塔尼亚人 / 760号囚犯 / 第760号囚犯 / Guantanamo Diary / Prisoner 760/760号犯人4k.The.Mauritanian.2021.2160p.UHD.BluRay.x265.10bit.HDR.DTS-HD.MA.7.1-4k电影下载: M6 A1 f" i0 W) m+ J) S2 N' h
$ |- }( ~3 P# }6 u: G" U9 ], p
760号犯人4k.The.Mauritanian.2021.2160p.UHD.BluRay.x265.10bit.HDR.DTS-HD.MA.7.1【25.62 GB 】% P& q- J: w9 U% q& I
760号犯人4k.The.Mauritanian.2021.2160p.UHD.BluRay.x265.10bit.HDR.DTS-HD.MA.7.1-TAHAR.torrent (32.82 KB)
加入蓝光高清网VIP会员  无限制下载本站所有资源---点这里

资源下载、资源播放、字幕使用、无法下载等常见问题---点这里
回复

使用道具 举报

全部回复2

再会未来 发表于 2021-11-27 19:51:27

再会未来 沙发

2021-11-27 19:51:27

谢谢分享
回复

使用道具 举报

dongshouba 发表于 2021-11-28 00:17:11

dongshouba 板凳

2021-11-28 00:17:11

感谢分享
回复

使用道具 举报

发表回复

您需要登录后才可以回帖 登录 | 立即注册

返回列表 本版积分规则

  • 发帖

  • 在线客服

  • 微信

  • 客户端

  • 返回顶部