蓝光高清网

开启左侧

救命下课铃4k Saved.By.The.Bell.2020.S01.2160p.STAN.WEBRip.AAC5.1.x265.美剧下载—27.21 GB

[复制链接]

2021-12-11 01:39:57 4407 7

蓝鸟 发表于 2021-11-26 21:19:37 |阅读模式

蓝鸟 楼主

2021-11-26 21:19:37

救命下课铃

状态:第一季(完结)
上映时间:2020-11-25
类型:喜剧 
地区:美国
导演:Dashiell Driscoll / Erin Fischer / Marcos Gonzalez
主演:伊丽莎白·伯克利 / Belmont Cameli / 德克斯特·达登 / 约翰·迈克尔·辛吉斯 / 米切尔·霍格
画质标准:4K(3840x2160) 封装音轨:MKV 音轨编码:其他DD
豆瓣评分:6.4分
剧情简介
  根据1989年同名喜剧改编,讲述加州州长Zack Morris因为把太多低收入高中关门而陷入水深火热的地步,故此他决定把受到影响的学生都送到加州最好的学校 – Bayside高中....
影片参数
救命下课铃4k Saved.By.The.Bell.2020.S01.2160p.STAN.WEBRip.AAC5.1.x265.美剧信息
Video
ID : 1
Format : HEVC
Format/Info : High Efficiency Video Coding
Format profile : Main@L5@High
Codec ID : V_MPEGH/ISO/HEVC
Duration : 31 min 21 s
Bit rate : 14.5 Mb/s
Width : 3 840 pixels
Height : 2 160 pixels
Display aspect ratio : 16:9
Frame rate mode : Constant
Frame rate : 23.976 (23976/1000) FPS
Original frame rate : 23.976 (24000/1001) FPS
Color space : YUV
Chroma subsampling : 4:2:0
Bit depth : 8 bits
Bits/(Pixel*Frame) : 0.073
Stream size : 3.18 GiB (97%)
Default : Yes
Forced : No
Color range : Limited
Color primaries : BT.709
Transfer characteristics : BT.709
Matrix coefficients : BT.709


Audio
ID : 2
Format : AAC LC
Format/Info : Advanced Audio Codec Low Complexity
Codec ID : A_AAC-2
Duration : 31 min 21 s
Bit rate : 445 kb/s
Channel(s) : 6 channels
Channel layout : C L R Ls Rs LFE
Sampling rate : 48.0 kHz
Frame rate : 46.875 FPS (1024 SPF)
Compression mode : Lossy
Stream size : 99.9 MiB (3%)
Language : English
Default : Yes
Forced : No


Text
ID : 3
Format : UTF-8
Codec ID : S_TEXT/UTF8
Codec ID/Info : UTF-8 Plain Text
Duration : 31 min 14 s
Bit rate : 122 b/s
Count of elements : 862
Stream size : 28.1 KiB (0%)
Title : SDH
Language : English
Default : No
Forced : No


Menu
00:02:55.000 : en:Intro start
00:03:27.000 : en:Intro end
00:30:20.000 : en:Credits



蓝光高清网提示您 点击下方附件名称 即可开始下载


救命下课铃4k Saved.By.The.Bell.2020.S01.2160p.STAN.WEBRip.AAC5.1.x265.美剧下载


救命下课铃4k Saved.By.The.Bell.2020.S01.2160p.STAN.WEBRip.AAC5.1.x265【27.21 GB】

救命下课铃4k Saved.By.The.Bell.2020.S01.2160p.STAN.WEBRip.AAC5.1.x265-NTb.torrent (69.63 KB)
加入蓝光高清网VIP会员  无限制下载本站所有资源---点这里

资源下载、资源播放、字幕使用、无法下载等常见问题---点这里
回复

使用道具 举报

全部回复7

再会未来 发表于 2021-11-28 08:14:36

再会未来 沙发

2021-11-28 08:14:36

谢谢分享
回复

使用道具 举报

dongshouba 发表于 2021-11-29 00:04:44

dongshouba 板凳

2021-11-29 00:04:44

感谢分享
回复

使用道具 举报

ggang1 发表于 2021-11-29 10:12:50

ggang1 地板

2021-11-29 10:12:50

不错,谢楼主分享
回复 支持 反对

使用道具 举报

gdlmxia 发表于 2021-11-30 00:08:08

gdlmxia 5#

2021-11-30 00:08:08

太好啦&萬分感謝版主的無私發佈分享%
回复 支持 反对

使用道具 举报

ggang1 发表于 2021-11-30 09:44:18

ggang1 6#

2021-11-30 09:44:18

謝分享!感謝分享!
回复 支持 反对

使用道具 举报

再会未来 发表于 2021-12-11 01:39:54

再会未来 7#

2021-12-11 01:39:54

谢谢分享
回复

使用道具 举报

再会未来 发表于 2021-12-11 01:39:57

再会未来 8#

2021-12-11 01:39:57

谢谢分享
回复

使用道具 举报

发表回复

您需要登录后才可以回帖 登录 | 立即注册

返回列表 本版积分规则

  • 发帖

  • 在线客服

  • 微信

  • 客户端

  • 返回顶部