蓝光高清网

开启左侧

喧闹一家亲:圣诞节大冒险 4k.A.Loud.House.Christmas.2021.2160p.PMTP.WEB-DL.x265.8bit.SDR.DDP5

[复制链接]

2021-11-30 09:43:26 3970 4

蓝鸟 发表于 2021-11-29 17:01:15 |阅读模式

蓝鸟 楼主

2021-11-29 17:01:15

喧闹一家亲:圣诞节大冒险
上映时间:2021年
类型:喜剧 剧情 冒险 
地区:美国 
导演:乔纳森·扎治
主演:布赖恩·斯特帕尼克 / Mia Allan / 布瑞恩韦德 / 凯萨琳·塔柏 / 莱希·德贝内代托
画质标准:4K SDR  封装音轨:Dolby TrueHD 5.1 
豆瓣评分:6.4分
简       介
/ X& i9 S1 w, R4 h. m% }7 R; @, M" @$ R7 X

5 I2 w) k/ H4 y9 B7 }. u       暂无简介······( V- O' X5 ^" a" ]. H  }2 ^
/ K+ i2 H1 [# Y2 A6 s: u6 s
  s' ^1 r- y3 m# A$ R. S& Q
影片参数  G, T! q7 y2 l. E
喧闹一家亲(真人版)/喧闹一家亲:圣诞节大冒险4k.A.Loud.House.Christmas.2021.2160p.PMTP.WEB-DL.x265.8bit.SDR.DDP5.1-4k电影信息( S5 n3 X& t# I
Video3 h9 J/ Y$ u( t# ~  `6 L/ ?; a
ID : 1* F1 U; u2 G) }5 t2 z0 [
Format : HEVC
. k$ D1 h6 J7 VFormat/Info : High Efficiency Video Coding1 d  X7 j2 M2 P" @# b
Format profile : Main@L5@Main: `% O. i. r8 V4 }% v# l
Codec ID : V_MPEGH/ISO/HEVC0 W* P1 F1 U+ W* n
Duration : 1 h 4 min: B3 o2 q& [. y7 U" i) a7 z
Bit rate : 9 222 kb/s9 ^% u* s, }* G6 ?0 }; ], q% x
Width : 3 840 pixels0 @# X' p1 M5 H' ?; S( O9 h
Height : 2 160 pixels
! }# J! F4 i, N) ADisplay aspect ratio : 16:9: G3 \- v* Y4 I* A
Frame rate mode : Constant! ~! Q0 F9 r6 N4 l# b  V1 N6 \
Frame rate : 23.976 (24000/1001) FPS
5 f4 a8 w2 Q* D7 H" uColor space : YUV
, W! a. n4 k" N+ M# G. QChroma subsampling : 4:2:0% C+ E2 E6 R9 p1 s2 [9 A; J
Bit depth : 8 bits+ ^) F8 ~+ ]; `( G
Bits/(Pixel*Frame) : 0.046! H( O. D% v& [) x( x% \
Stream size : 4.17 GiB (93%)
" X* ^2 I) Z# e8 L7 E, a( w* UWriting library : x265 3.5+1-f0c1022b6:[Linux][GCC 9.3.0][64 bit] 8bit
9 j6 q9 s; Q3 kEncoding settings : cpuid=1111039 / frame-threads=3 / wpp / no-pmode / no-pme / no-psnr / no-ssim / log-level=2 / input-csp=1 / input-res=3840x2160 / interlace=0 / total-frames=0 / level-idc=0 / high-tier=1 / uhd-bd=0 / ref=4 / no-allow-non-conformance / repeat-headers / annexb / no-aud / no-eob / no-eos / no-hrd / info / hash=0 / no-temporal-layers / open-gop / min-keyint=48 / keyint=48 / gop-lookahead=0 / bframes=4 / b-adapt=2 / b-pyramid / bframe-bias=0 / rc-lookahead=25 / lookahead-slices=4 / scenecut=0 / hist-scenecut=0 / radl=0 / no-splice / no-intra-refresh / ctu=64 / min-cu-size=8 / rect / no-amp / max-tu-size=32 / tu-inter-depth=1 / tu-intra-depth=1 / limit-tu=0 / rdoq-level=2 / dynamic-rd=0.00 / no-ssim-rd / signhide / no-tskip / nr-intra=0 / nr-inter=0 / no-constrained-intra / strong-intra-smoothing / max-merge=3 / limit-refs=3 / limit-modes / me=3 / subme=3 / merange=57 / temporal-mvp / no-frame-dup / no-hme / weightp / no-weightb / no-analyze-src-pics / deblock=0:0 / sao / no-sao-non-deblock / rd=4 / selective-sao=4 / no-early-skip / rskip / no-fast-intra / no-tskip-fast / no-cu-lossless / no-b-intra / no-splitrd-skip / rdpenalty=0 / psy-rd=2.00 / psy-rdoq=1.00 / no-rd-refine / no-lossless / cbqpoffs=0 / crqpoffs=0 / rc=abr / bitrate=9505 / qcomp=0.60 / qpstep=4 / stats-write=0 / stats-read=2 / cplxblur=20.0 / qblur=0.5 / vbv-maxrate=11406 / vbv-bufsize=9505 / vbv-init=0.8 / min-vbv-fullness=50.0 / max-vbv-fullness=80.0 / ipratio=1.40 / pbratio=1.30 / aq-mode=2 / aq-strength=1.00 / cutree / zone-count=0 / no-strict-cbr / qg-size=32 / no-rc-grain / qpmax=69 / qpmin=0 / no-const-vbv / sar=1 / overscan=0 / videoformat=5 / range=0 / colorprim=1 / transfer=1 / colormatrix=1 / chromaloc=0 / display-window=0 / cll=0,0 / min-luma=0 / max-luma=255 / log2-max-poc-lsb=8 / vui-timing-info / vui-hrd-info / slices=1 / no-opt-qp-pps / no-opt-ref-list-length-pps / no-multi-pass-opt-rps / scenecut-bias=0.05 / hist-threshold=0.03 / no-opt-cu-delta-qp / no-aq-motion / no-hdr10 / no-hdr10-opt / no-dhdr10-opt / no-idr-recovery-sei / analysis-reuse-level=0 / analysis-save-reuse-level=0 / analysis-load-reuse-level=0 / scale-factor=0 / refine-intra=0 / refine-inter=0 / refine-mv=1 / refine-ctu-distortion=0 / no-limit-sao / ctu-info=0 / no-lowpass-dct / refine-analysis-type=0 / copy-pic=1 / max-ausize-factor=1.0 / no-dynamic-refine / no-single-sei / no-hevc-aq / no-svt / no-field / qp-adaptation-range=1.00 / scenecut-aware-qp=0conformance-window-offsets / right=0 / bottom=0 / decoder-max-rate=0 / no-vbv-live-multi-pass
7 `1 t& F3 h7 D% Y* v5 zDefault : Yes
+ E; n& a) l1 e. Y( [# hForced : No
' l' G( j6 d- \3 a2 K: X& H5 m; QColor range : Limited) @/ q7 Z) [# V7 z1 B# w
Color primaries : BT.709- P& P3 _7 @+ A) p( w7 _
Transfer characteristics : BT.709
/ U' r, A8 q; X* ^7 a# M0 QMatrix coefficients : BT.709
* B/ A0 \8 Y; E" N- x( R+ s& I: ^3 `; q1 F) p

# g5 |4 s* z: a' bAudio7 `& y( q5 x" v; C: b' j9 a3 m3 n% \
ID : 2* g" g. L6 ]9 n$ P) ^
Format : E-AC-3  h  f/ F% J" Z0 n0 Y$ \$ z# h
Format/Info : Enhanced AC-32 L1 n/ ~9 @" W# p6 n" z4 `
Commercial name : Dolby Digital Plus
3 ?  U. N. _' A' dCodec ID : A_EAC3
& B2 r% {0 w5 q0 t, pDuration : 1 h 4 min+ _2 n- l  e% E9 a% u
Bit rate mode : Constant
( p( \, K. M4 |; xBit rate : 640 kb/s
( Z4 V( r/ K* L( V  U' hChannel(s) : 6 channels% m. W$ {1 B$ R( K
Channel layout : L R C LFE Ls Rs4 E1 p! g. G% _# @5 Q  y0 M$ @
Sampling rate : 48.0 kHz
+ j+ T0 ~" N! Z- }2 K6 z6 F% GFrame rate : 31.250 FPS (1536 SPF)% w( M. }0 [0 B  q1 ]
Compression mode : Lossy+ ~) x0 v: A) q5 h* x, c) ?+ b7 V
Stream size : 297 MiB (6%)
3 h7 e, ?% n' O2 Y/ _- zLanguage : English
% n. T0 k0 O) q$ G. F' N: @Service kind : Complete Main9 }' j+ p$ j2 v, |8 ~3 Z, p
Default : Yes
3 \& Q2 r' x+ n. d4 f& aForced : No
9 n& b: K2 O  t
# g; C: D3 z. V: z* F
/ n& d  @& J7 _1 V4 E
Text #1
* w3 ?, d( x9 K' p/ I! jID : 3" D( W$ |6 i! K
Format : UTF-8
1 L' q8 |- h- l3 H5 GCodec ID : S_TEXT/UTF8
: ^+ T: I  T. {6 d7 x; r) ZCodec ID/Info : UTF-8 Plain Text
# K( E/ W  Q  u3 z* i& ?% i, IDuration : 1 h 4 min
7 N4 \. u! h& W6 t9 p# rBit rate : 93 b/s
2 w8 ^3 |: \, D, MCount of elements : 1405# M9 k$ F% W6 L  I
Stream size : 44.4 KiB (0%)
3 U" W" e0 Y0 Q  s8 e$ {; @Language : English
5 U- I2 ^/ a; Z% v* M; M& Q" n. `0 oDefault : No( M6 j  m8 B, c0 C& P/ {
Forced : No
! }) }: i  d* Y% y6 l4 a
- H& J# T7 S0 @# x5 v
/ u8 d% i$ X. f  O$ M7 f& ?
Text #2* e! [! I9 p# L; q7 ?" H
ID : 4
4 n" S9 r, k7 u" L( d, ~7 o' L+ @Format : UTF-8
6 D0 x2 m: G* y  vCodec ID : S_TEXT/UTF8% a" S; j% e5 M( r7 ~$ e
Codec ID/Info : UTF-8 Plain Text1 I) t* l3 _, l
Duration : 1 h 4 min1 h  ~' b7 I, q% x2 s, ~" d
Bit rate : 99 b/s5 M/ U+ P( I2 ^" ~0 ^1 }+ n, S5 x
Count of elements : 1520: X6 g: i0 I/ S0 t
Stream size : 47.2 KiB (0%). Y" j3 a" L0 `% B
Title : SDH9 C- ]! g+ l, v) [
Language : English$ K! b: m" S( x6 Q- U7 O3 N) r
Default : No, z; z8 @3 z" L# M! D
Forced : No
6 n/ o+ r8 r4 R

! J- a# S7 O! a0 N! O蓝光高清网提示您 点击下方附件名称 即可开始下载; O5 p/ p$ z& _7 t
/ D$ [: Q7 `* z* t- Q+ j. G1 N

4 A9 W) I' v/ u3 i6 Q7 p喧闹一家亲(真人版)/喧闹一家亲:圣诞节大冒险4k.A.Loud.House.Christmas.2021.2160p.PMTP.WEB-DL.x265.8bit.SDR.DDP5.1-4k电影下载
4 W. @, n4 V8 f3 i! _- i
; g. P6 d. g, b5 a; e* r1 |; t

' {4 r( n: P$ @9 }# M  x+ O7 b! V" z喧闹一家亲:圣诞节大冒险4k.A.Loud.House.Christmas.2021.2160p.PMTP.WEB-DL.x265.8bit.SDR.DDP5.1【4.46 GB】
, u  `0 l# `6 L5 M
( ~! |, @; l: ?! g, C4 k# m 喧闹一家亲:圣诞节大冒险4k.A.Loud.House.Christmas.2021.2160p.PMTP.WEB-DL.x265.8bit.SDR.DDP5.1-WELP.torrent (22.96 KB)
加入蓝光高清网VIP会员  无限制下载本站所有资源---点这里

资源下载、资源播放、字幕使用、无法下载等常见问题---点这里
回复

使用道具 举报

全部回复4

再会未来 发表于 2021-11-29 20:07:48

再会未来 沙发

2021-11-29 20:07:48

谢谢分享
回复

使用道具 举报

gdlmxia 发表于 2021-11-30 00:07:20

gdlmxia 板凳

2021-11-30 00:07:20

回复 支持 反对

使用道具 举报

dongshouba 发表于 2021-11-30 00:22:28

dongshouba 地板

2021-11-30 00:22:28

感谢分享
回复

使用道具 举报

ggang1 发表于 2021-11-30 09:43:26

ggang1 5#

2021-11-30 09:43:26

謝分享!感謝分享!
回复 支持 反对

使用道具 举报

发表回复

您需要登录后才可以回帖 登录 | 立即注册

返回列表 本版积分规则

  • 发帖

  • 在线客服

  • 微信

  • 客户端

  • 返回顶部