蓝光高清网

开启左侧

[惊悚] 请寻找我 Bring.Me.Home.2019.PROPER.1080p.BluRay.x264-YAMG 9.22GB

[复制链接]

2021-12-2 19:27:18 2386 3

image.png

◎译  名 请寻找我/Bring Me Home/复仇母亲(港/台)/找到我/来找我/请来找我

◎年  代 2019
◎产  地 韩国
◎类  别 惊悚 / 犯罪
◎语  言 韩语
◎上映日期 2019-09-05(多伦多电影节) / 2019-11-27(韩国)
◎豆瓣评分 6.6/10 from 6299 users
◎片  长 108分钟
◎导  演 金承宇 Seung-woo Kim
◎编  剧 金承宇 Seung-woo Kim
◎主  演 李英爱 Yeong-ae Lee
       刘在明 Jae-myung Yoo
       李源根 Won-geun Lee
       朴海俊 Hea-jun Park
       金伊敬 Yi-kyung Kim
       白珠熙 JuHee Baek
       郑俊元 Joon-won Jeong
       韩哲宇 Han Chul-woo
       许栋元 Heo Dong-won
       李杭娜 Hang-na Lee
       李时宇 Si-woo Lee
       金泰律 Tae-yool Kim
       朴庆惠 Gyeong-hye Park
       郑爱华 Ae-hwa Jung
       徐贤宇 Seo Hyeon-woo
◎标  签 李英爱 | 犯罪 | 韩国 | 人性 | 韩国电影 | 惊悚 | 孩子 | 2019
◎简  介


  闊別大銀幕14年,大長今李英愛強勢回歸,飾演一位瀕臨崩潰邊緣的母親,誓要尋回被擄走的兒子。兒子失蹤6年,赫然傳來疑是孩子下落的消息,母親決定隻身走到漁村,希望找出一個被黑道家族控制的小孩,查看他是否失散多年的兒子。奈何冷血的惡人想把孩子留下當生財工具,將她拒諸於門外。母親唯有在雷雨交加的晚上,以極端手段再闖虎穴。首次執導的金勝友,營造張力到家,描繪由心而發的暴力,教人觸目驚心
  1. Video
  2. ID                                       : 1
  3. Format                                   : AVC
  4. Format/Info                              : Advanced Video Codec
  5. Format profile                           : [email protected]
  6. Format settings                          : CABAC / 5 Ref Frames
  7. Format settings, CABAC                   : Yes
  8. Format settings, Reference frames        : 5 frames
  9. Codec ID                                 : V_MPEG4/ISO/AVC
  10. Duration                                 : 1 h 48 min
  11. Bit rate                                 : 8 697 kb/s
  12. Width                                    : 1 920 pixels
  13. Height                                   : 800 pixels
  14. Display aspect ratio                     : 2.40:1
  15. Frame rate mode                          : Constant
  16. Frame rate                               : 24.000 FPS
  17. Color space                              : YUV
  18. Chroma subsampling                       : 4:2:0
  19. Bit depth                                : 8 bits
  20. Scan type                                : Progressive
  21. Bits/(Pixel*Frame)                       : 0.236
  22. Stream size                              : 6.57 GiB (71%)
  23. Writing library                          : x264 core 164 r3075 66a5bc1
  24. Encoding settings                        : cabac=1 / ref=5 / deblock=1:-3:-3 / analyse=0x3:0x133 / me=umh / subme=10 / psy=1 / psy_rd=1.00:0.00 / mixed_ref=1 / me_range=32 / chroma_me=1 / trellis=2 / 8x8dct=1 / cqm=0 / deadzone=21,11 / fast_pskip=0 / chroma_qp_offset=-2 / threads=24 / lookahead_threads=4 / sliced_threads=0 / nr=0 / decimate=0 / interlaced=0 / bluray_compat=0 / constrained_intra=0 / bframes=8 / b_pyramid=2 / b_adapt=2 / b_bias=0 / direct=3 / weightb=1 / open_gop=0 / weightp=2 / keyint=250 / keyint_min=24 / scenecut=40 / intra_refresh=0 / rc=crf / mbtree=0 / crf=17.0 / qcomp=0.60 / qpmin=0 / qpmax=69 / qpstep=4 / ip_ratio=1.40 / pb_ratio=1.30 / aq=3:0.60
  25. Language                                 : English
  26. Default                                  : Yes
  27. Forced                                   : No
  28. Color range                              : Limited
  29. Matrix coefficients                      : BT.709

  30. Audio #1
  31. ID                                       : 2
  32. Format                                   : MLP FBA
  33. Format/Info                              : Meridian Lossless Packing FBA
  34. Commercial name                          : Dolby TrueHD
  35. Codec ID                                 : A_TRUEHD
  36. Duration                                 : 1 h 48 min
  37. Bit rate mode                            : Variable
  38. Bit rate                                 : 2 780 kb/s
  39. Maximum bit rate                         : 4 764 kb/s
  40. Channel(s)                               : 6 channels
  41. Channel layout                           : L R C LFE Ls Rs
  42. Sampling rate                            : 96.0 kHz
  43. Frame rate                               : 1 200.000 FPS (80 SPF)
  44. Compression mode                         : Lossless
  45. Stream size                              : 2.10 GiB (23%)
  46. Title                                    : Korean
  47. Language                                 : Korean
  48. Default                                  : Yes
  49. Forced                                   : No

  50. Audio #2
  51. ID                                       : 3
  52. Format                                   : AC-3
  53. Format/Info                              : Audio Coding 3
  54. Commercial name                          : Dolby Digital
  55. Format settings                          : Dolby Surround EX
  56. Codec ID                                 : A_AC3
  57. Duration                                 : 1 h 48 min
  58. Bit rate mode                            : Constant
  59. Bit rate                                 : 640 kb/s
  60. Channel(s)                               : 6 channels
  61. Channel layout                           : L R C LFE Ls Rs
  62. Sampling rate                            : 48.0 kHz
  63. Frame rate                               : 31.250 FPS (1536 SPF)
  64. Compression mode                         : Lossy
  65. Stream size                              : 495 MiB (5%)
  66. Title                                    : Korean
  67. Language                                 : Korean
  68. Service kind                             : Complete Main
  69. Default                                  : Yes
  70. Forced                                   : No

  71. Text #1
  72. ID                                       : 4
  73. Format                                   : UTF-8
  74. Codec ID                                 : S_TEXT/UTF8
  75. Codec ID/Info                            : UTF-8 Plain Text
  76. Duration                                 : 1 h 41 min
  77. Bit rate                                 : 34 b/s
  78. Count of elements                        : 1047
  79. Stream size                              : 25.4 KiB (0%)
  80. Title                                    : English Forced
  81. Language                                 : English
  82. Default                                  : Yes
  83. Forced                                   : Yes

  84. Text #2
  85. ID                                       : 5
  86. Format                                   : PGS
  87. Muxing mode                              : zlib
  88. Codec ID                                 : S_HDMV/PGS
  89. Codec ID/Info                            : Picture based subtitle format used on BDs/HD-DVDs
  90. Duration                                 : 1 h 41 min
  91. Bit rate                                 : 22.6 kb/s
  92. Count of elements                        : 2080
  93. Stream size                              : 16.4 MiB (0%)
  94. Title                                    : English Forced PGS
  95. Language                                 : English
  96. Default                                  : No
  97. Forced                                   : No

  98. Text #3
  99. ID                                       : 6
  100. Format                                   : PGS
  101. Muxing mode                              : zlib
  102. Codec ID                                 : S_HDMV/PGS
  103. Codec ID/Info                            : Picture based subtitle format used on BDs/HD-DVDs
  104. Duration                                 : 1 h 41 min
  105. Bit rate                                 : 22.8 kb/s
  106. Count of elements                        : 2078
  107. Stream size                              : 16.5 MiB (0%)
  108. Title                                    : Traditional Chinese PGS
  109. Language                                 : Chinese
  110. Default                                  : No
  111. Forced                                   : No

  112. Menu
  113. 00:00:00.000                             : en:Chapter 01
  114. 00:06:36.833                             : en:Chapter 02
  115. 00:10:51.167                             : en:Chapter 03
  116. 00:15:37.917                             : en:Chapter 04
  117. 00:20:57.917                             : en:Chapter 05
  118. 00:25:46.208                             : en:Chapter 06
  119. 00:30:24.958                             : en:Chapter 07
  120. 00:35:55.375                             : en:Chapter 08
  121. 00:40:23.458                             : en:Chapter 09
  122. 00:48:00.250                             : en:Chapter 10
  123. 00:51:40.208                             : en:Chapter 11
  124. 00:55:46.625                             : en:Chapter 12
  125. 01:00:46.833                             : en:Chapter 13
  126. 01:04:40.000                             : en:Chapter 14
  127. 01:09:03.625                             : en:Chapter 15
  128. 01:18:41.333                             : en:Chapter 16
  129. 01:23:03.042                             : en:Chapter 17
  130. 01:28:46.583                             : en:Chapter 18
  131. 01:35:17.708                             : en:Chapter 19
  132. 01:43:15.125                             : en:Chapter 20
复制代码

43a2a9ea52e786f2fa0e758e91611105.jpeg

蓝光高清网提示您  点击下方附件名称  即可开始下载


请寻找我 Bring.Me.Home.2019.PROPER.1080p.BluRay.x264-YAMG 9.22GB
Bring.Me.Home.2019.PROPER.1080p.BluRay.x264-YAMG.torrent (23.88 KB)
加入蓝光高清网VIP会员  无限制下载本站所有资源---点这里

资源下载、资源播放、字幕使用、无法下载等常见问题---点这里
回复

使用道具 举报

全部回复3

milanboss手机认证 发表于 2021-11-30 11:18:58

milanboss 沙发

2021-11-30 11:18:58

加入蓝光高清网VIP会员
回复 支持 反对

使用道具 举报

再会未来 发表于 2021-11-30 21:19:15

再会未来 板凳

2021-11-30 21:19:15

不错的资源
回复 支持 反对

使用道具 举报

再会未来 发表于 2021-12-2 19:27:18

再会未来 地板

2021-12-2 19:27:18

很好的资源
回复 支持 反对

使用道具 举报

发表回复

您需要登录后才可以回帖 登录 | 立即注册

返回列表 本版积分规则

:
:
1371333023@qq.com
:
点击这里给我发消息
:
http://
:
未填写

主题97224

帖子97728

积分183041

最新推荐

  • 轮回 4k.Samsara.2011.2160p.WEB-DL.x265.1

    简 介   灵动的音符与舞步,天真无邪且

  • 爱情狂奔 Love.On.The.Run.1979.FRENCH.108

    ◎译  名 爱情狂奔 / 爱情飞逝 / 爱情奔跑 /

  • 偷吻 Stolen.Kisses.1968.1080p.BluRay.x26

    ◎译  名 偷吻 / Stolen Kisses◎片  名 Ba

  • 永恒族 Eternals.2021.1080p.BluRay.x264.D

    ◎译  名 永恒族 / 永恒神族 / The Eternals◎

  • 大红狗克里弗 Clifford.The.Big.Red.Dog.20

    ◎译  名 大红狗克里弗 / 赤BIG灵灵狗(港)◎片

  • WWE:强者生存 2021 WWE.Survivor.Series.2

    ◎译  名 WWE:强者生存 2021◎片  名 WWE

  • 豪门血劫 The.Banker.1989.1080p.BluRay.x2

    ◎译  名 豪门血劫 / 银行家◎片  名 The B

  • 破产姐妹 2.Broke.Girls.S05.1080p.HDTV.X2

    影片参数 蓝光高清网提示您 点击下方附件名称 即

  • 爱情是狗娘 4k.Amores.Perros.2000.SPANISH

    简 介   三个与狗有关的故事,三段令人

  • 四百下 / 胡作非为 / The 400 Blows/四百击

    简 介   作文课上,安托万(Jean-Pierre

  • 世界之美THE BEAUTY OF THE WORLD in 8K UL

    影片参数 蓝光高清网提示您 点击下方附件名

  • 8K(60p)VIDEOS UltraHD _ Realistic 8K HD

    影片参数 蓝光高清网提示您 点击下方附件名

  • 8K (120 FPS) VIDEOS _ World 8K Videos H

    影片参数 蓝光高清网提示您 点击下方附件

  • 8K (60 FPS) VIDEOS _ Beauty of WorldH

    影片参数 蓝光高清网提示您 点击下方

  • 变种动物园 怪奇兽乐园(台)Cryptozoo.2021

    ◎译  名 变种动物园 / 怪奇兽乐园(台)◎片 

  • 红圈 Le.Cercle.Rouge.1970.REMASTERED.108

    ◎译  名 红圈 / 血环 / 仁义血环 / 死性不改

  • 陆阿采与黄飞鸿 Challenge.of.the.Masters.

    ◎译  名 陆阿采与黄飞鸿 / Challenge of the

  • 唐人街小子 Chinatown.Kid.1977.Alternate.

    ◎译  名 唐人街小子 / 唐人街功夫小子 / 以毒

  • 发帖

  • 在线客服

  • 微信

  • 客户端

  • 返回顶部