蓝光高清网

开启左侧

[其它] 偷情的陶醉 Christina.1984.DUBBED.1080p.BluRay.x264-PEGASUS 8.45GB

[复制链接]

2021-12-1 09:53:52 2325 0

image.png

◎译  名 偷情的陶醉/Christina
◎片  名 Christina y la reconversión sexual
◎年  代 1984
◎产  地 西班牙,美国
◎类  别 情色 / 犯罪
◎语  言 西班牙语
◎上映日期 1984-08-26
◎片  长 91分钟
◎导  演 弗朗西斯科·拉腊·波洛普 Francisco Lara Polop
◎编  剧 哈利·阿兰·托尔斯 Harry Alan Towers
◎主  演 托尼伊斯贝特 Tony Isbert
       埃米利亚诺·雷东多 Emiliano Redondo
       朱厄尔·谢泼德 Jewel Shepard
       卡琳·舒伯特 Karin Schubert
◎标  签 情色 | 西班牙 | 美国 | 养眼 | 鸠占鹊巢 | 阿德里亚诺多明戈斯 | 犯罪 | 朱厄尔谢泼德
◎简  介


  Christina Von Belle, a wealthy heiress, is kidnapped by a lesbian terrorist group and held for ransom. She escapes the lesbian terrorists, only to fall into the clutches of a gang of gourmet chefs, who want a piece of the ransom themselves.
http://www.4k1080.com/static/image/common/codebg.gif"); color: rgb(102, 102, 102); zoom: 1; border-color: rgb(221, 221, 221); font-family: Tahoma, "Microsoft Yahei", Simsun;">
  1. Video
  2. ID                                       : 1
  3. Format                                   : AVC
  4. Format/Info                              : Advanced Video Codec
  5. Format profile                           : [email protected]
  6. Format settings                          : CABAC / 4 Ref Frames
  7. Format settings, CABAC                   : Yes
  8. Format settings, Reference frames        : 4 frames
  9. Codec ID                                 : V_MPEG4/ISO/AVC
  10. Duration                                 : 1 h 31 min
  11. Bit rate                                 : 12.8 Mb/s
  12. Width                                    : 1 920 pixels
  13. Height                                   : 1 080 pixels
  14. Display aspect ratio                     : 16:9
  15. Frame rate mode                          : Constant
  16. Frame rate                               : 23.976 (24000/1001/189150) FPS
  17. Color space                              : YUV
  18. Chroma subsampling                       : 4:2:0
  19. Bit depth                                : 8 bits
  20. Scan type                                : Progressive
  21. Bits/(Pixel*Frame)                       : 0.257
  22. Stream size                              : 8.18 GiB (97%)
  23. Writing library                          : x264 core 163 r3059 b684ebe0
  24. Encoding settings                        : cabac=1 / ref=4 / deblock=1:-3:-3 / analyse=0x3:0x133 / me=umh / subme=10 / psy=1 / psy_rd=1.00:0.00 / mixed_ref=1 / me_range=32 / chroma_me=1 / trellis=2 / 8x8dct=1 / cqm=0 / deadzone=21,11 / fast_pskip=0 / chroma_qp_offset=-2 / threads=34 / lookahead_threads=8 / sliced_threads=0 / nr=0 / decimate=0 / interlaced=0 / bluray_compat=0 / constrained_intra=0 / bframes=16 / b_pyramid=2 / b_adapt=2 / b_bias=0 / direct=3 / weightb=1 / open_gop=0 / weightp=2 / keyint=240 / keyint_min=24 / scenecut=40 / intra_refresh=0 / rc_lookahead=60 / rc=crf / mbtree=0 / crf=23.0 / qcomp=0.65 / qpmin=0 / qpmax=69 / qpstep=4 / vbv_maxrate=62500 / vbv_bufsize=78125 / crf_max=0.0 / nal_hrd=none / filler=0 / ip_ratio=1.40 / pb_ratio=1.30 / aq=2:0.80
  25. Default                                  : Yes
  26. Forced                                   : No
  27. Color range                              : Limited
  28. Color primaries                          : BT.709
  29. Transfer characteristics                 : BT.709
  30. Matrix coefficients                      : BT.709

  31. Audio
  32. ID                                       : 2
  33. Format                                   : FLAC
  34. Format/Info                              : Free Lossless Audio Codec
  35. Codec ID                                 : A_FLAC
  36. Duration                                 : 1 h 31 min
  37. Bit rate mode                            : Variable
  38. Bit rate                                 : 432 kb/s
  39. Channel(s)                               : 2 channels
  40. Channel layout                           : L R
  41. Sampling rate                            : 48.0 kHz
  42. Frame rate                               : 11.719 FPS (4096 SPF)
  43. Bit depth                                : 16 bits
  44. Compression mode                         : Lossless
  45. Stream size                              : 282 MiB (3%)
  46. Title                                    : English Dub
  47. Writing library                          : libFLAC 1.2.1 (UTC 2007-09-17)
  48. Language                                 : English
  49. Default                                  : Yes
  50. Forced                                   : No

  51. Menu
  52. 00:00:00.000                             : :Chapter 1
  53. 00:05:42.676                             : :Chapter 2
  54. 00:10:49.774                             : :Chapter 3
  55. 00:15:40.565                             : :Chapter 4
  56. 00:20:09.291                             : :Chapter 5
  57. 00:25:12.136                             : :Chapter 6
  58. 00:29:55.460                             : :Chapter 7
  59. 00:36:52.043                             : :Chapter 8
  60. 00:41:57.056                             : :Chapter 9
  61. 00:50:10.341                             : :Chapter 10
  62. 00:56:51.408                             : :Chapter 11
  63. 01:03:25.927                             : :Chapter 12
  64. 01:09:16.319                             : :Chapter 13
  65. 01:16:53.234                             : :Chapter 14
  66. 01:22:43.709                             : :Chapter 15
  67. 01:27:16.481                             : :Chapter 16

蓝光高清网提示您 点击下方附件名称 即可开始下载

偷情的陶醉 Christina.1984.DUBBED.1080p.BluRay.x264-PEGASUS 8.45GB

Christina.1984.DUBBED.1080p.BluRay.x264-PEGASUS.torrent (21.88 KB)
加入蓝光高清网VIP会员  无限制下载本站所有资源---点这里

资源下载、资源播放、字幕使用、无法下载等常见问题---点这里
回复

使用道具 举报

发表回复

您需要登录后才可以回帖 登录 | 立即注册

返回列表 本版积分规则

:
:
1371333023@qq.com
:
点击这里给我发消息
:
http://
:
未填写

主题97224

帖子97728

积分183041

最新推荐

  • 轮回 4k.Samsara.2011.2160p.WEB-DL.x265.1

    简 介   灵动的音符与舞步,天真无邪且

  • 爱情狂奔 Love.On.The.Run.1979.FRENCH.108

    ◎译  名 爱情狂奔 / 爱情飞逝 / 爱情奔跑 /

  • 偷吻 Stolen.Kisses.1968.1080p.BluRay.x26

    ◎译  名 偷吻 / Stolen Kisses◎片  名 Ba

  • 永恒族 Eternals.2021.1080p.BluRay.x264.D

    ◎译  名 永恒族 / 永恒神族 / The Eternals◎

  • 大红狗克里弗 Clifford.The.Big.Red.Dog.20

    ◎译  名 大红狗克里弗 / 赤BIG灵灵狗(港)◎片

  • WWE:强者生存 2021 WWE.Survivor.Series.2

    ◎译  名 WWE:强者生存 2021◎片  名 WWE

  • 豪门血劫 The.Banker.1989.1080p.BluRay.x2

    ◎译  名 豪门血劫 / 银行家◎片  名 The B

  • 破产姐妹 2.Broke.Girls.S05.1080p.HDTV.X2

    影片参数 蓝光高清网提示您 点击下方附件名称 即

  • 爱情是狗娘 4k.Amores.Perros.2000.SPANISH

    简 介   三个与狗有关的故事,三段令人

  • 四百下 / 胡作非为 / The 400 Blows/四百击

    简 介   作文课上,安托万(Jean-Pierre

  • 世界之美THE BEAUTY OF THE WORLD in 8K UL

    影片参数 蓝光高清网提示您 点击下方附件名

  • 8K(60p)VIDEOS UltraHD _ Realistic 8K HD

    影片参数 蓝光高清网提示您 点击下方附件名

  • 8K (120 FPS) VIDEOS _ World 8K Videos H

    影片参数 蓝光高清网提示您 点击下方附件

  • 8K (60 FPS) VIDEOS _ Beauty of WorldH

    影片参数 蓝光高清网提示您 点击下方

  • 变种动物园 怪奇兽乐园(台)Cryptozoo.2021

    ◎译  名 变种动物园 / 怪奇兽乐园(台)◎片 

  • 红圈 Le.Cercle.Rouge.1970.REMASTERED.108

    ◎译  名 红圈 / 血环 / 仁义血环 / 死性不改

  • 陆阿采与黄飞鸿 Challenge.of.the.Masters.

    ◎译  名 陆阿采与黄飞鸿 / Challenge of the

  • 唐人街小子 Chinatown.Kid.1977.Alternate.

    ◎译  名 唐人街小子 / 唐人街功夫小子 / 以毒

  • 发帖

  • 在线客服

  • 微信

  • 客户端

  • 返回顶部