蓝光高清网

开启左侧

新生化危机 4k.Resident.Evil.Welcome.to.Raccoon.City.2021.2160p.AMZN.WEB-DL.x265.10bit

  [复制链接]

6 天前 27165 7

蓝鸟 发表于 2021-12-22 09:42:02 |阅读模式

蓝鸟 楼主

2021-12-22 09:42:02

新生化危机
上映时间:2021年
类型:动作 恐怖 科幻 
地区:美国 德国 
导演:约翰内斯·罗伯茨
主演:汉娜·乔恩-卡门 / 卡雅·斯考达里奥 / 尼尔·麦克唐纳 / 汤姆·霍珀 / 罗比·阿美尔
画质标准:4K HDR  封装音轨:Dolby TrueHD 5.1 Dolby Atmos 
豆瓣评分:5.6分
简       介
( o( g! R6 E' H
" M: o4 \" K: \
6 p7 c, |( h7 u# D" G
  浣熊市曾是蓬勃发展的制药巨头——伞公司(Umbrella Corporation)的总部所在地,现在却是一个死气沉沉的中西部小镇。
3 I+ V, S( ~  D1 ^1 L" }2 t/ m  该公司的大撤离使这座城市变成了一片荒地,地下蕴藏着巨大的邪恶。
8 I9 g- T0 y2 J! M% S+ W8 ]  当邪恶被释放时,镇上的人们将永远改变,一小群幸存者必须共同努力,揭开保护伞背后的真相,并度过夜晚。
9 z* r& q% {$ Q0 h# p
4 O' ?, p3 r6 O3 l& C" B

' l1 d( [( e) \( @影片参数
+ O+ @" E1 k$ N' p
恶灵古堡首部曲:拉昆市(台) / 生化危机:欢迎来到浣熊市 / 恶灵古堡 / Biohazard/新生化危机4k.Resident.Evil.Welcome.to.Raccoon.City.2021.2160p.AMZN.WEB-DL.x265.10bit.HDR10Plus.DDP5.1-4k电影信息
9 U0 ^; H6 s% a" n  l; EVideo  G. g1 x* }6 z9 L3 W
ID : 1
" d: C, b# I$ p9 o/ v5 }7 `, HFormat : HEVC3 D: v4 N  E8 A. {1 n: }( s
Format/Info : High Efficiency Video Coding( n! R  i! w$ L3 u; e# f
Format profile : Main 10@L5@Main
/ F* H1 H/ s1 e, {$ F% YHDR format : SMPTE ST 2094 App 4, Version 1, HDR10+ Profile B compatible
! a7 u, H# ?! d8 W1 g# SCodec ID : V_MPEGH/ISO/HEVC  D2 a" l: z8 K, v3 ~
Duration : 1 h 47 min; y% h/ |  t- Z, _
Bit rate : 14.6 Mb/s
( f, i/ X  N7 B4 l5 vWidth : 3 840 pixels; V# o0 i, h5 o( K' N- d  H( L
Height : 1 600 pixels
- t+ {" z% G! j  n6 [: m- G* H$ VDisplay aspect ratio : 2.40:1
7 h3 O+ y% H$ s: {, _' d, VFrame rate mode : Constant* l9 k" p! F7 V' s6 V$ z& B
Frame rate : 23.976 (24000/1001) FPS9 ^; \3 J# \, ~* x9 L  P  K
Color space : YUV
% P( m# `" r8 f! J8 AChroma subsampling : 4:2:0" ?( s# z2 \) s5 l2 i
Bit depth : 10 bits9 b6 n4 n. j6 u3 z
Bits/(Pixel*Frame) : 0.099
1 j" @) q  d- {2 NStream size : 10.9 GiB (96%)
! ^# p/ r) A3 J; [% \0 VDefault : Yes
2 G6 H+ e( ]* p$ H" \# ?' S0 gForced : No
( f; B* F) I5 E' iColor range : Limited
9 G1 i+ P. s; w- W: \Color primaries : BT.2020! ?5 y0 G$ h$ `) c  q
Transfer characteristics : PQ
* W2 f4 q; s8 o  lMatrix coefficients : BT.2020 non-constant
! |+ g+ V2 U% G3 mMastering display color primaries : Display P3+ m* O$ m- D9 l: ]2 K0 |
Mastering display luminance : min: 0.0001 cd/m2, max: 1000 cd/m2. s. \8 V$ q! D; q/ L( P
Maximum Content Light Level : 622 cd/m2
0 j/ l. g7 \* [Maximum Frame-Average Light Level : 242 cd/m2
! `" f0 ^# g( d( |, c* U/ y5 [" t& h2 q  D& k

2 v3 V& k  n, ]; ]- HAudio7 M+ |* U4 ?1 E4 T# a; a
ID : 2
5 w) O! a4 N+ J" TFormat : E-AC-3
( p  x2 d4 n# X0 a2 O% Q! W6 ]8 ?: AFormat/Info : Enhanced AC-3
& j1 {6 i$ i- B$ r) G+ C3 @Commercial name : Dolby Digital Plus5 }! w' M* s# }
Codec ID : A_EAC3
5 u" F* P) H7 O& O& U/ }Duration : 1 h 47 min# w3 h! m& |7 C; w: I
Bit rate mode : Constant
9 t0 ]$ `* v$ v; d6 m+ i7 ]7 @Bit rate : 640 kb/s/ c9 p$ w9 t. U% m& M4 Q7 T
Channel(s) : 6 channels8 ?0 H  p( y6 B0 h( |; r' |. p7 n
Channel layout : L R C LFE Ls Rs
9 w7 ?6 W0 _$ V) _4 S' SSampling rate : 48.0 kHz& v! c* @4 \: V
Frame rate : 31.250 FPS (1536 SPF)
4 N5 [& Z7 \4 P4 UCompression mode : Lossy% J3 F  @7 ~1 z# f! I/ `
Stream size : 492 MiB (4%). g; H9 |* B1 l) `9 M) g1 @4 q
Title : English% m+ w4 h5 K4 ^$ v# r  m
Language : English
6 u1 K- T& m# J% oService kind : Complete Main
. a7 @% _0 }1 x( f2 UDefault : No' b) ?/ ^9 Q' `( t
Forced : No+ n5 o! k( A( w
% [( l) u# D" \6 G# }
3 {* O; j  _5 n5 H8 t2 G
Text #1
" r$ l0 e" a+ f4 d: H3 w9 nID : 30 `, p+ n9 o/ w' |: W0 l) P
Format : UTF-8- f3 j, M4 e7 Y% q* v; w  v. F
Codec ID : S_TEXT/UTF8
% T/ {5 t( [; e3 |& ?4 r7 g9 l6 oCodec ID/Info : UTF-8 Plain Text0 P3 n4 ?. L) E7 ?0 q3 n- E& ]
Duration : 1 h 46 min, a* D  y4 \8 o' H3 v3 P% f
Bit rate : 41 b/s
3 i  D! [$ c$ I* bCount of elements : 1439
/ H! g" g# W1 I. ]2 uStream size : 32.0 KiB (0%)
+ V8 X6 a$ {- l: PTitle : English+ M# K6 [! b: S) I5 t4 F
Language : English
: q0 |% @% A+ H" {0 f. s/ oDefault : No
& q% C" U6 |! j" x8 y+ LForced : No" \" b% u, c& b) s  c9 q! G+ H
# p3 a8 |' U4 _$ S. }, f' r
5 k7 a' m( q/ o5 V4 `3 s0 r
Text #2! k. |, ]9 c$ i' _- \5 i' J0 Z
ID : 43 u4 C, g' }8 l4 s" c& C- J9 N
Format : UTF-8
3 y7 p0 t- O# c4 z5 d7 [& _/ uCodec ID : S_TEXT/UTF87 |1 {/ q, K( q
Codec ID/Info : UTF-8 Plain Text
; g, v! Q/ E8 @. X) o, n6 A5 tDuration : 1 h 46 min1 u7 M% X5 p+ J: y; L3 `% j
Bit rate : 45 b/s
/ ]: t' D% e% hCount of elements : 1473
# F9 p2 Q6 w# r5 B$ B  V+ EStream size : 35.8 KiB (0%)
9 Z3 S0 p% G& z& [0 J  iTitle : English [SDH]7 I: F, g# F+ ~8 |/ Q  T
Language : English
1 T- d5 P. T4 R) C; e) QDefault : No
/ e' x% T$ @( z9 ~. i# l6 bForced : No

+ y8 O. n: S6 P9 D2 ~+ o5 N) ^. n, F  Q: g, [' [: a4 c& a
蓝光高清网提示您 点击下方附件名称 即可开始下载
0 O- a# _; `# E" p1 \( G/ j: S( L: I+ o1 d7 t9 l: x/ H/ R+ m: ?
3 E+ P5 ^8 x( Z* c% v
多版本下载时请注意区分+ M3 T( Y% [* \. |& ^7 I( S
3 h9 O! C, |- K7 O1 m" X
6 \+ q* r+ E0 j4 T, c
恶灵古堡首部曲:拉昆市(台) / 生化危机:欢迎来到浣熊市 / 恶灵古堡 / Biohazard/新生化危机4k.Resident.Evil.Welcome.to.Raccoon.City.2021.2160p.AMZN.WEB-DL.x265.10bit.HDR10Plus.DDP5.1-4k电影下载$ m0 D% a- V1 [% x7 x
( q1 V* W* L+ W1 `: l
新生化危机4k.Resident.Evil.Welcome.to.Raccoon.City.2021.2160p.AMZN.WEB-DL.x265.10bit.HDR10Plus.DDP5.1【11.42 GB】
: ]6 O% k; _6 z$ Y/ e' L 新生化危机4k.Resident.Evil.Welcome.to.Raccoon.City.2021.2160p.AMZN.WEB-DL.x265.10bit.HDR10Plus.DDP5.1-CM.torrent (14.99 KB)
加入蓝光高清网VIP会员  无限制下载本站所有资源---点这里

资源下载、资源播放、字幕使用、无法下载等常见问题---点这里
回复

使用道具 举报

全部回复7

纽约蓝血人Eric 发表于 2021-12-23 10:24:39

纽约蓝血人Eric 沙发

2021-12-23 10:24:39

作为一名多年的生化粉,期待
回复 支持 反对

使用道具 举报

mit1121 发表于 2021-12-25 15:45:01

mit1121 板凳

2021-12-25 15:45:01

作为一名多年的生化粉,期待
回复 支持 反对

使用道具 举报

来自南方的神话 发表于 2021-12-28 11:59:06 来自手机

来自南方的神话 地板

2021-12-28 11:59:06

这个厉害了,得支持!!
回复 支持 反对

使用道具 举报

nmbater手机认证 发表于 2022-1-8 22:57:03

nmbater 5#

2022-1-8 22:57:03

Thanks for you share!
回复 支持 反对

使用道具 举报

tang1975手机认证 发表于 2022-1-13 22:18:01

tang1975 6#

2022-1-13 22:18:01

这个好像是新片支持
回复 支持 反对

使用道具 举报

再会未来 发表于 2022-1-14 19:28:28

再会未来 7#

2022-1-14 19:28:28

不错的资源
回复 支持 反对

使用道具 举报

羊一一 发表于 6 天前

羊一一 8#

6 天前

不能用高清币下载吗?还要开通会员
回复 支持 反对

使用道具 举报

发表回复

您需要登录后才可以回帖 登录 | 立即注册

返回列表 本版积分规则

  • 发帖

  • 在线客服

  • 微信

  • 客户端

  • 返回顶部