蓝光高清网

开启左侧

温柔酒吧4k.The.Tender.Bar.2021.HDR.2160p.WEB.H265-4k电影下载—11.59GB

[复制链接]

2022-1-15 17:40:30 4021 4

蓝鸟 发表于 2022-1-7 16:24:39 |阅读模式

蓝鸟 楼主

2022-1-7 16:24:39

温柔酒吧
上映时间:2021年
类型:剧情 
地区:美国 
导演:乔治·克鲁尼
主演:本·阿弗莱克 莉莉·拉贝
画质标准:4K  封装音轨:Dolby TrueHD 5.1 
豆瓣评分:暂无评分
简       介, q- E( x' H$ x

6 x- ^( |! C! F5 N9 c; z! ]  改编自J.R. Moehringer的同名自传畅销书,他在纽约长岛长大,年幼的时候当DJ的父亲就消失了,从此这个男孩一直在寻找生命中的父亲形象。而他的叔叔查理的酒吧里的顾客们给了他关爱,带他去海滩玩,去球赛……最终带他加入了他们的圈子。; k/ F6 ^# c. f4 A) Q

6 W; {1 A2 g' P% ], L/ N$ m影片参数! y- F$ _7 |' j) O% a
温柔酒吧4k.The.Tender.Bar.2021.HDR.2160p.WEB.H265-4k电影信息
. n# C! q2 ?3 y! eVideo0 D3 p# Z/ U7 f, v8 d0 R: f+ o
ID : 1
6 w& @  v  K, |! z- u; }( A$ z' @$ |Format : HEVC
9 \! x/ {3 i% B. Z% S+ I( n5 A8 M% KFormat/Info : High Efficiency Video Coding
  P) h6 v0 j6 x3 ]' I1 fFormat profile : Main 10@L5@Main
' l/ d! H' ?( _2 s4 G- q2 y" Y& z/ RHDR format : SMPTE ST 2094 App 4, Version 1, HDR10+ Profile B compatible
7 N# m5 I  \$ Q9 e  BCodec ID : V_MPEGH/ISO/HEVC; J. o' ?( a+ v% V8 A6 z- y- z
Duration : 1 h 46 min
& J- I6 \6 F: I4 C, \# oBit rate : 14.6 Mb/s
* `/ {8 N8 L# y8 B0 uWidth : 3 840 pixels
/ r4 R. U4 B+ I9 `Height : 2 080 pixels
2 J2 ?; m4 v/ B8 R8 j& D, QDisplay aspect ratio : 1.85:1
, t+ A4 {$ X' o' A. K* A& Z8 kFrame rate mode : Constant( P. p4 J: j2 S" b9 L% e5 M8 ?) P  j
Frame rate : 24.000 FPS
: |0 H: N" h7 E- rColor space : YUV/ o. m- z3 u' ?
Chroma subsampling : 4:2:0
; w9 N. F; V4 ]$ G# V# _3 O$ @Bit depth : 10 bits! u; f- I6 {1 Y6 W2 i
Bits/(Pixel*Frame) : 0.076+ b' h7 l) Q! H0 @
Stream size : 10.9 GiB (94%)
" A, b2 z2 \$ t: p$ f3 K. ODefault : Yes
' G3 k5 n2 m7 O: Y3 K# W9 h$ FForced : No7 E8 ~" c/ r! |, n
Color range : Limited
5 S: i; l- Z% \3 IColor primaries : BT.2020
  `4 f3 q' X' D# u: R( U) V2 u8 qTransfer characteristics : PQ3 h8 O2 e* M! K( h
Matrix coefficients : BT.2020 non-constant
: w  L- v0 e$ t5 tMastering display color primaries : Display P3
6 |" q: _4 W: @4 w* E. N! k3 aMastering display luminance : min: 0.0001 cd/m2, max: 1000 cd/m2* h2 c6 [5 m+ C& S. Q( i/ ~* L
Maximum Content Light Level : 103 cd/m2
* C. h7 t, G; \2 L3 cMaximum Frame-Average Light Level : 976 cd/m2' [8 h0 W4 o" k: B

' P2 N( D* j: Q8 S+ c3 p3 n' a
- h0 S' |+ o3 P. x
Audio
7 C2 L1 H/ W) t0 E, m, I# lID : 2
# M* ]. H: \* e. d) J" LFormat : E-AC-3
7 n( ~7 N% P. u1 y* r& l. `Format/Info : Enhanced AC-3
6 z% ]9 z9 u  s1 ^Commercial name : Dolby Digital Plus
* u" V5 b4 f) q6 ^% v0 LCodec ID : A_EAC34 [. q8 t+ b/ |4 u
Duration : 1 h 46 min
& _4 k9 a' t5 K/ r- i! l# O5 bBit rate mode : Constant4 L" X. r( i3 P2 Z
Bit rate : 640 kb/s6 Q# Q7 P- v) q! u3 }* P/ v/ a4 B, }
Channel(s) : 6 channels
, b+ Y: @4 s2 `( aChannel layout : L R C LFE Ls Rs+ I' n! b$ ?  m9 f( J
Sampling rate : 48.0 kHz
& j4 e5 v0 W0 |# x" Z$ pFrame rate : 31.250 FPS (1536 SPF)# n/ @% u9 M* J% [7 R
Compression mode : Lossy
' b& P, i. ^3 K+ E' RStream size : 490 MiB (4%)
( c% Y- h8 C- Q! \9 jLanguage : English8 v0 A7 _" h4 z5 c- G3 C, k
Service kind : Complete Main. l+ G" k) H7 {6 F# z; C. Q4 q3 a: X  W
Default : Yes
% o$ V' C7 R: R  fForced : No
! q! {8 t9 C( ~1 l/ [. J7 M8 z
蓝光高清网提示您 点击下方附件名称 即可开始下载
& b$ }. q) L3 u3 b% l4 v& ]6 i
; Z; N: d4 k3 ?4 g4 u温柔酒吧4k.The.Tender.Bar.2021.HDR.2160p.WEB.H265-4k电影下载1 Y9 L+ B8 w3 E' Y1 b

: Q- X7 E8 ^/ |/ G' |温柔酒吧4k.The.Tender.Bar.2021.HDR.2160p.WEB.H265【11.59 GB】% ?& Y9 b! Y: V/ G! k2 E& W$ p) a$ F
温柔酒吧4k.The.Tender.Bar.2021.HDR.2160p.WEB.H265-NAISU.torrent (15.19 KB)
加入蓝光高清网VIP会员  无限制下载本站所有资源---点这里

资源下载、资源播放、字幕使用、无法下载等常见问题---点这里
回复

使用道具 举报

全部回复4

再会未来 发表于 2022-1-7 23:55:14

再会未来 沙发

2022-1-7 23:55:14

不错的资源
回复 支持 反对

使用道具 举报

gdlmxia 发表于 2022-1-12 23:54:19

gdlmxia 板凳

2022-1-12 23:54:19

太好啦&萬分感謝版主的無私發佈分享%
回复 支持 反对

使用道具 举报

dongshouba 发表于 2022-1-13 00:10:54

dongshouba 地板

2022-1-13 00:10:54

感谢分享
回复

使用道具 举报

再会未来 发表于 2022-1-15 17:40:30

再会未来 5#

2022-1-15 17:40:30

电影很好
回复

使用道具 举报

发表回复

您需要登录后才可以回帖 登录 | 立即注册

返回列表 本版积分规则

  • 发帖

  • 在线客服

  • 微信

  • 客户端

  • 返回顶部