蓝光高清网

开启左侧

父子 Family.Practice.2018.GERMAN.2160p.WEB-DL.x265.10bit.SDR.DD5.1-4k电影下载-7.65GB

[复制链接]

2022-1-15 17:40:18 4125 1

蓝鸟 发表于 2022-1-10 09:48:56 |阅读模式

蓝鸟 楼主

2022-1-10 09:48:56

父子
上映时间:2018年
类型:剧情 
地区:其他 
导演:
主演:Morgane Ferru Morgane Ferru 西比勒·卡诺尼卡 Sibylle Canonica 卡塔·科尔姆 Katja Kolm
画质标准:4K SDR  封装音轨:Dolby TrueHD 5.1 Dolby Atmos 
豆瓣评分:暂无分
简       介
9 ?7 w2 ?$ V* I: W
- b7 t" l6 D# j% E       暂无······
+ O' q4 |. ~) A4 W5 F. z
( s0 P* p1 |# v+ h+ s/ s: Q$ P影片参数
6 H4 d, U* M3 k; R
Video' i- t1 o$ F: A% D6 W7 `  W
ID                                       : 1
' c! [9 F* y$ D) a, D0 fFormat                                   : HEVC" B1 G3 A4 Y+ i; Q' A$ I6 [
Format/Info                              : High Efficiency Video Coding
) q; Q8 U3 ~4 `( k3 rFormat profile                           : Main [email protected]@High
9 I" e/ z# {, q7 l' t+ R/ O5 D3 ?Codec ID                                 : V_MPEGH/ISO/HEVC
  _1 j  \( v' KDuration                                 : 1 h 28 min' @5 C$ C( h7 W6 y# j
Bit rate                                 : 11.9 Mb/s
7 Q% H7 n$ W: u# g5 m0 \3 ZWidth                                    : 3 838 pixels
# w6 j% D# y0 m/ @- D& J9 XHeight                                   : 2 034 pixels: k7 R% [( p% |8 D5 v& v
Display aspect ratio                     : 1.887
, s- f2 t$ Q( w/ Z' Y8 b' ]% h& dFrame rate mode                          : Constant
  \% G9 d. t' w% O4 JFrame rate                               : 25.000 FPS6 j, d. q3 M% A/ M; t/ B; \
Color space                              : YUV
. z4 k6 Y! t2 ]Chroma subsampling                       : 4:2:0
) d9 h. n( g/ ~, J9 W& g% PBit depth                                : 10 bits' u$ F4 r& i+ I; x6 x  p6 W
Bits/(Pixel*Frame)                       : 0.061( {" J- P' c. q, M
Stream size                              : 7.41 GiB (97%)
7 ]2 F& F1 D& dDefault                                  : Yes; e+ b- `: }5 \9 h
Forced                                   : No
) a! _. Q* `: Q, o! bColor range                              : Limited7 B7 z# U. C2 l; d0 `0 {
Color primaries                          : BT.709
8 P1 N; D/ U' d, l! [# mTransfer characteristics                 : BT.709
6 z- ~% `6 z5 L2 x" g' |- n, SMatrix coefficients                      : BT.709
. w; ~7 F. m4 |3 v4 i% }+ s6 G, p2 F* u9 y

2 y2 V! @9 k7 d6 ^1 x* h+ m; _5 b* I: bAudio. w$ L# o$ {3 m2 D: Q, ]' l
ID                                       : 25 o* ~- {# @. T+ B. E' s
Format                                   : AC-35 c/ o) _, F6 y' O' r
Format/Info                              : Audio Coding 3& W& V# @  k+ p$ @6 h7 b
Commercial name                          : Dolby Digital
0 _' m/ R; P+ DCodec ID                                 : A_AC3
& |/ j2 P. ~; IDuration                                 : 1 h 28 min. i3 k5 G5 N- i' o* f! |% \* M8 k
Bit rate mode                            : Constant' O; ]! ?% o0 n8 F: R# t+ R1 f+ K
Bit rate                                 : 384 kb/s
6 u& y9 i7 F% ?+ [/ i/ ]- DChannel(s)                               : 6 channels
# R. o8 {$ a$ l1 q7 jChannel layout                           : L R C LFE Ls Rs
; d- t3 [. y8 N/ q' FSampling rate                            : 48.0 kHz
4 W) ]4 P$ R8 `5 U8 K1 f8 u' UFrame rate                               : 31.250 FPS (1536 SPF)
2 y$ c/ X2 J6 ?Compression mode                         : Lossy
& p. ^& R: p7 N! r; u0 f) ?" dStream size                              : 244 MiB (3%)& k, Z6 M: f+ Z4 i, w% s6 u( ~
Title                                    : Deutsch
' C$ p" }8 z) ?/ MLanguage                                 : German8 Q4 {0 K0 o  a" t1 ^
Service kind                             : Complete Main
# g. p3 p! d6 mDefault                                  : Yes
8 v7 h+ l, |0 J# y' m) q; Q" HForced                                   : No" f8 y; x2 z8 y

2 c( w% h) K+ m5 D6 F" S

* E" Q4 k- C0 w: B' I: f3 ?Text #1' x% G: s  Z# q4 B& C7 J- |
ID                                       : 3
. ?' Q4 R' j6 q: n  }. f& o1 AFormat                                   : UTF-8  c2 Q: j$ D$ |% R  [* b. @
Codec ID                                 : S_TEXT/UTF8
; q. v  h$ y; \8 Y1 ZCodec ID/Info                            : UTF-8 Plain Text
. c! X# U1 Q1 l4 U* ]( ]6 [Duration                                 : 1 h 28 min
/ u! T  ]( {9 B( j  sBit rate                                 : 37 b/s
9 w& E% H$ u; M: {- x& f9 dCount of elements                        : 669
: P6 ~0 B5 I5 a' |  Q& G/ g7 TStream size                              : 24.1 KiB (0%)
1 |' X! x) `- DLanguage                                 : English
9 R/ d; c2 t2 V& [; WDefault                                  : No
9 k  y# q* U' ~" KForced                                   : No, T/ v( i! F3 p1 l0 N- O' W

/ M* T; s8 w3 W" a. X5 Q
) p1 _) o, Q* J' |; k+ S
Text #2
  L9 Z1 ^  Q/ B9 N+ @8 c2 p9 jID                                       : 4
; O, X+ _( _% P  Q; f$ _* uFormat                                   : UTF-8
$ x4 F1 R# K. }' ^( A) t% V2 h+ \Codec ID                                 : S_TEXT/UTF8
% ?1 F1 m5 @7 c+ l' z0 PCodec ID/Info                            : UTF-8 Plain Text
* _4 W! i4 v# wDuration                                 : 1 h 25 min- k6 y' o- r  q
Bit rate                                 : 38 b/s
3 ^0 S* a+ P' l+ KCount of elements                        : 6928 a. u7 U, l6 P( `+ K# F
Stream size                              : 23.8 KiB (0%)5 O% p% T5 u& D; v: P( k1 ^
Title                                    : Deutschland
0 X0 i9 w! _4 b5 ^Language                                 : German; D" z' W5 _; c, ^  i$ m
Default                                  : No
+ P0 u8 ]) D3 s- s2 _# ]3 m( EForced                                   : No, k8 k/ Z7 J9 l4 }" n9 G0 ^1 N
) S# N7 d8 u* e

+ M" ?+ Z6 l" K8 PText #3
" o$ `7 Q& y$ }+ ?* ^$ d3 H) dID                                       : 52 d: s/ e, j/ ?0 o% X- c9 ]5 |' t
Format                                   : UTF-8
( J# s( h' j5 n& f1 v  l, DCodec ID                                 : S_TEXT/UTF83 k; z$ w* E- E8 t
Codec ID/Info                            : UTF-8 Plain Text
) G: }6 Q5 k  @/ A/ EDuration                                 : 1 h 28 min+ j8 F; Q9 q# k
Bit rate                                 : 37 b/s. w$ f# X; b( y
Count of elements                        : 651
& I9 P  n- [7 LStream size                              : 24.5 KiB (0%)5 d: L: `. w: B) {0 c
Language                                 : French, }# Q- W5 O! [6 g9 h/ X- b
Default                                  : No* F- p2 j1 y) h
Forced                                   : No  v( @) w/ X. O$ o& l5 e
& y* d/ v! M1 {6 T* S$ K$ ~5 C

: N* `5 {4 D% c2 y4 V8 NMenu
/ J* ~" a' r0 _! B00:00:00.000                             : Chapter 01" a7 ^& `6 ?/ z% k* }
00:10:12.960                             : Chapter 02
1 C1 l/ }/ g. y; @7 P# \" Z00:19:43.720                             : Chapter 03
+ t1 t: L) U* V00:29:36.040                             : Chapter 04
4 \8 v4 R% h/ B- X00:41:01.000                             : Chapter 05
  O/ Q, _( T+ S; U- f  O; j9 t00:49:26.160                             : Chapter 06
  F8 X: J. l" N& W' y01:00:00.320                             : Chapter 07
: o/ S8 U2 Z. W& R01:09:48.479                             : Chapter 08
# y& l  p8 _& L; Q& L' G: B" _01:17:07.800                             : Chapter 094 o. V$ `* Z# s# `# [: X
01:23:34.440                             : Chapter 10
6 a( |3 [0 R! r' S
3 e' b8 y3 P" J

# m- _& q$ o/ |# j) l9 V蓝光高清网提示您 点击下方附件名称 即可开始下载; ]: s8 P5 @5 J9 ]2 S. ]

: Y4 S  \. _2 ]  S1 F
% k* G- ^9 k* `. S+ y
父子 Family.Practice.2018.GERMAN.2160p.WEB-DL.x265.10bit.SDR.DD5.1-4k电影下载
/ F; W; @, o9 s& n+ ?6 @& c+ |, s, V) o  Z6 ~
父子 Family.Practice.2018.GERMAN.2160p.WEB-DL.x265.10bit.SDR.DD5.1【7.65GB】( H9 l$ c3 Y0 J1 m
Family.Practice.2018.GERMAN.2160p.WEB-DL.x265.10bit.SDR.DD5.1-alfaHD.torrent (19.78 KB)
加入蓝光高清网VIP会员  无限制下载本站所有资源---点这里

资源下载、资源播放、字幕使用、无法下载等常见问题---点这里
回复

使用道具 举报

全部回复1

再会未来 发表于 2022-1-15 17:40:18

再会未来 沙发

2022-1-15 17:40:18

谢谢分享
回复

使用道具 举报

发表回复

您需要登录后才可以回帖 登录 | 立即注册

返回列表 本版积分规则

  • 发帖

  • 在线客服

  • 微信

  • 客户端

  • 返回顶部