蓝光高清网

开启左侧

乔丹日志 / A Journal For Jordan/挚爱家书4K.A.Journal.For.Jordan.2021.2160p.WEB-DL.x265.10bit.HDR.DDP5.1-4k电影下载-11.04 GB

[复制链接]

2022-1-17 20:14:48 2991 2

蓝鸟 发表于 2022-1-12 11:34:51 |阅读模式

蓝鸟 楼主

2022-1-12 11:34:51

挚爱家书
上映时间:2021年
类型:剧情 
地区:美国 
导演:丹泽尔·华盛顿
主演:迈克尔·B·乔丹 / 香缇·亚当斯 / 哈隆·克里斯蒂安 / 罗伯特·维斯多姆 / 塔马拉·图尼
画质标准:4K HDR  封装音轨:Dolby TrueHD 5.1 Dolby Atmos 
豆瓣评分:无评分
简       介
4 U. }0 P8 @& C  L8 s- ^' u0 x5 w' ]- E2 l/ ], T' u
  影片改编自小说《对不起,来不及陪你长大》,讲述了普利策获奖记者戴娜·坎纳迪(Dana Canedy)和军官查尔斯·门罗·金(Charles Monroe King)的真实爱情故事。查尔斯在海外服役期间为防止在战事中阵亡,给他们刚刚出生的儿子乔丹写下了一封家书,旨在告诉他在没有父亲的成长过程中如何过上体面的生活,同时也包含了深刻的人生感悟,以及一个父亲对他从未谋面儿子的忠告和祈祷。# t" W# V$ O' g0 e( ~, }

5 D9 I# Q2 t8 b/ }1 Y

9 F% \8 R" F1 n( T, F影片参数
) @: k, x# K1 k- h. d2 s9 b! V; K# O
乔丹日志 / A Journal For Jordan/挚爱家书4K.A.Journal.For.Jordan.2021.2160p.WEB-DL.x265.10bit.HDR.DDP5.1-4k电影信息. ]. [& _" I* G, L1 G$ c( R7 m, R
Video
% ?! N  t% ~5 v, L  ]ID : 1
( |/ e! ]: j. DFormat : HEVC. L* J! I! @/ ]" {  x/ P6 ~
Format/Info : High Efficiency Video Coding8 Q$ @1 j8 M  v) [% `+ c
Format profile : Main 10@L5@High
4 k8 ~. a6 K% m) ^  Z) I- j# NHDR format : SMPTE ST 2086, HDR10 compatible3 v9 \$ A+ N' k0 E$ _" R
Codec ID : V_MPEGH/ISO/HEVC# y2 ^# X( J) L% f8 }- s
Duration : 2 h 11 min
# D6 Y# H8 E7 u4 ]/ b0 R2 }Bit rate : 14.3 Mb/s  p9 U0 O) @+ I9 @
Width : 3 840 pixels
0 Y) l1 I' T. J% H; b% [1 Y  q" \. BHeight : 1 600 pixels
% Q: S1 [" k% I' C8 j7 M! p, Q, ?Display aspect ratio : 2.40:1) p  ~& S  ?0 n4 }  o* ]! m  V( k
Frame rate mode : Constant
& Y8 ]; _8 A  N- ?5 gFrame rate : 23.976 FPS$ t2 B2 u2 }5 o/ j8 D
Color space : YUV
7 h- Q1 v) c* m& a9 wChroma subsampling : 4:2:0 (Type 2)5 P" m0 u4 M; h/ J! Q
Bit depth : 10 bits* w- H! |8 B3 b: f7 y; l
Bits/(Pixel*Frame) : 0.097
) L! ]8 A2 {; B- ZStream size : 13.1 GiB (96%)
" d2 u# d- J% ?) G+ k+ ]% J9 iDefault : Yes3 E2 {/ N$ B+ ^2 n6 ~- R
Forced : No: L, K0 H7 Z# _5 m- P0 ]
Color range : Limited
' U& V8 g) ~" t) G  g" dColor primaries : BT.2020$ y; k( }& E$ l1 W& w7 y2 F
Transfer characteristics : PQ6 M! ^" ^- n' Y! R0 k; v
Matrix coefficients : BT.2020 non-constant
' m. y  F! X$ p( g% X7 ]3 |Mastering display color primaries : BT.2020" G$ K( _( ]( J
Mastering display luminance : min: 0.0050 cd/m2, max: 1000 cd/m2' y- q. U6 |/ d3 S4 @, e$ k
Maximum Content Light Level : 1100 cd/m2
0 M* ]: v! Q. e5 i% Z/ YMaximum Frame-Average Light Level : 381 cd/m2
* l  f, I( }5 `$ I0 r( M
; [3 s+ J" \. y- d. b4 _( g

% d/ j; n9 P$ h  w* TAudio
, ]. S& ]$ r4 JID : 2
8 G7 o( n& y$ F  TFormat : E-AC-3. p4 {, [5 b# X9 B2 V' Z! v& I0 `! |. x
Format/Info : Enhanced AC-3
) r/ L: P& n, J; tCommercial name : Dolby Digital Plus
% l! b+ N% v' OCodec ID : A_EAC3* [0 ~( n6 c7 Y; R9 c
Duration : 2 h 11 min
$ L: G6 T0 V3 r8 VBit rate mode : Constant
- x% N7 L9 E4 ~+ i7 @2 r. H, ~" M6 wBit rate : 640 kb/s
% o6 L% N' \# U3 sChannel(s) : 6 channels
! h# v$ L( D/ S/ JChannel layout : L R C LFE Ls Rs
- Q1 l' V4 A4 @2 u. ^Sampling rate : 48.0 kHz
; `+ U, Y6 ?; d6 T  ^Frame rate : 31.250 FPS (1536 SPF)5 I1 O& \1 _/ L% E4 z6 O
Compression mode : Lossy
' H- V, G) d( B, r* IStream size : 601 MiB (4%)0 H7 Q" G8 u: d$ ?% w5 b% i3 m
Title : English# O+ m  g. J5 R
Language : English: v  [( L3 k: r. w5 f( B0 U
Service kind : Complete Main
1 w4 @# j1 E2 v! oDefault : No) ]2 k/ Y, h: b/ s0 M, K# d
Forced : No
/ ^+ d2 d; T; [+ f. U0 o4 R" H  D7 |9 z4 ^8 Q: D; i6 P
$ H+ W7 W6 r1 _/ t8 _/ d' x! {5 K; M
Text #1
$ q! d. Y1 }, n5 ?1 R' kID : 3
: e+ ~/ v) t  N  G/ i) bFormat : UTF-85 b$ x( r$ v; y; e. c& @0 S* \
Codec ID : S_TEXT/UTF8, q6 u2 l5 y! r' W" ~/ L6 \* f- c
Codec ID/Info : UTF-8 Plain Text, b* I8 y( J$ v' x
Duration : 2 h 8 min
& V' S; H" ^, }! y* ^Bit rate : 53 b/s
( r  ?* ^7 z" bCount of elements : 1773* A( g9 a1 ~2 k, \. p3 i
Stream size : 50.4 KiB (0%)
$ T% _! @9 H- Y7 _Title : English
( B! D- T6 k( H/ YLanguage : English
! L+ y3 i7 V: V; B6 }4 Y% H/ eDefault : Yes
) k  I( J3 R* z+ H2 y0 g  aForced : No
1 p7 L' b" g4 O' H
( p" U! s: k9 S- }
/ F+ c- I$ Y8 m8 S# m' o
Text #2
# p) O7 q( u- M& ~6 Y* ~  SID : 4+ Q% y, I9 Q, C, U2 W
Format : UTF-8
# Z) y/ I( Z* s1 ^7 e# YCodec ID : S_TEXT/UTF8& i( z/ |$ {2 B5 X( ]
Codec ID/Info : UTF-8 Plain Text( g, s+ M" y0 B, \
Duration : 2 h 8 min
: P# H/ Y1 y7 ^- k8 \Bit rate : 56 b/s* ~) `; n) Q; H' {7 t; r
Count of elements : 1836: P! l+ w# n* ^( l/ H. F
Stream size : 53.4 KiB (0%)
: h1 S) X4 E( l2 |8 H" p+ l+ KTitle : English [SDH]) z) F- r, f1 ^& P( r; C6 c% u: g
Language : English7 W+ o+ t6 a) c1 w. v
Default : No) _! M9 g) S0 p
Forced : No
  w' |) N" R' Y8 Q9 L
" Q  s+ z0 [8 a7 \" o* f- l/ T

( U0 E7 r7 Q- C& o2 O  b  y5 e' U  UText #3' K) u: X0 ?) K; N# ]3 p% N- X
ID : 55 l+ C# ~! L4 g4 N6 }/ e: O$ F
Format : UTF-86 N8 i$ Z8 U0 k9 `
Codec ID : S_TEXT/UTF8! e7 }6 c: |) b/ B! [! R6 w% O
Codec ID/Info : UTF-8 Plain Text
# y% J* c+ X. n  iDuration : 2 h 9 min6 {. a! c) ]3 Y# C. C' J
Bit rate : 49 b/s% M7 G: l1 ~" ~: t/ J
Count of elements : 1462: |- }& R: v+ g. e/ |
Stream size : 46.8 KiB (0%)
! ]; M: m5 K0 o/ ?# U& LTitle : French/ p6 o8 A2 \' k  R
Language : French
+ ]/ T( ^9 a9 N, N8 d3 @& bDefault : No$ G2 R' C; [6 ~5 C7 _/ R! g- A5 S0 C
Forced : No

$ K/ L/ y3 R& N5 H# ^" w/ a5 L# i" V- h. l7 H( A! P1 x
蓝光高清网提示您 点击下方附件名称 即可开始下载# `# ~+ h: C- |' Z5 u+ `

9 F. W. x, `; k) N9 B& ~

  f; P. O9 h% M( B# Z5 n多版本下载时请注意区分* m) K; q% [# h: t# H

& v8 i: s8 J# j9 F# `9 S
: y9 @4 I( d" k1 w1 x
乔丹日志 / A Journal For Jordan/挚爱家书4K.Ghostbusters.Afterlife.2021.2160p.WEB-DL.x265.10bit.SDR.DDP5.1.Atmos-4K电影下载' ?, d6 f2 g, i) w
" Z+ I  k# D9 Z& Z6 `
挚爱家书4K.A.Journal.For.Jordan.2021.2160p.WEB-DL.x265.10bit.HDR.DDP5.1【13.68 GB】
  f) |7 @' [, Z( R# M: p) O 挚爱家书4K.A.Journal.For.Jordan.2021.2160p.WEB-DL.x265.10bit.HDR.DDP5.1-NOGRP.torrent (17.76 KB)
加入蓝光高清网VIP会员  无限制下载本站所有资源---点这里

资源下载、资源播放、字幕使用、无法下载等常见问题---点这里
回复

使用道具 举报

全部回复2

再会未来 发表于 2022-1-15 17:40:41

再会未来 沙发

2022-1-15 17:40:41

不错的资源
回复 支持 反对

使用道具 举报

wangzhang3手机认证 发表于 2022-1-17 20:14:48

wangzhang3 板凳

2022-1-17 20:14:48

不错,楼主辛苦了,谢谢分享
回复 支持 反对

使用道具 举报

发表回复

您需要登录后才可以回帖 登录 | 立即注册

返回列表 本版积分规则

  • 发帖

  • 在线客服

  • 微信

  • 客户端

  • 返回顶部