蓝光高清网

开启左侧

丧尸崛起 4K.The.Amityville.Uprising.2022.2160p.WEB-DL.x265.10bit.SDR.DD5.1-4k电影下载—7.30 GB

[复制链接]

2022-1-13 13:17:10 5160 1

蓝鸟 发表于 2022-1-12 11:37:59 |阅读模式

蓝鸟 楼主

2022-1-12 11:37:59

丧尸崛起
上映时间:2021年
类型:恐怖 科幻 
地区:美国 
导演:托马斯·丘吉尔
主演:Micah Fitzgerald / Mike Ferguson / Joycelyne Lew
画质标准:4K SDR  封装音轨:Dolby TrueHD 5.1 Dolby Atmos 
豆瓣评分:无评分
简       介
0 M' O# `; K5 k5 j' H  V3 W/ D* R' U% d
  一名警官正在抵御僵尸起义。% C/ O! t. P$ K6 {0 _+ _

2 V% t( f0 g. v& `7 r3 ?: [
3 c& s: x1 u/ X( E' I/ K  c! Y
影片参数. L  R5 x" M: U5 D, X3 V0 K
丧尸崛起4K.The.Amityville.Uprising.2022.2160p.WEB-DL.x265.10bit.SDR.DD5.1-4k电影信息% z! U7 v4 k4 {. j
Video5 }6 u/ {/ E) x1 P7 U& c" v
ID : 1
5 r. }! T6 h+ c. X2 jFormat : HEVC& b, M% ?' M  J! S
Format/Info : High Efficiency Video Coding
0 J. K/ |# ~5 X% z& \Format profile : Main 10@L5@High
6 a5 x1 Q, A0 }: i$ r* v' XCodec ID : V_MPEGH/ISO/HEVC
( h: j8 C$ Q- p3 P2 s* G% k% g" lDuration : 1 h 25 min, Z. _; |" P, k+ a. @
Bit rate : 11.9 Mb/s
8 u+ _% ?" S# G9 G% q, ^: P, ]Width : 3 832 pixels
; c" K# w6 O! LHeight : 2 152 pixels/ O- N/ c1 K+ V, l  p* H# n. U
Display aspect ratio : 16:9
/ A. {. n. j' i7 ]" m# ?" zFrame rate mode : Constant, R; x( E3 ~8 r: c  ^# Q! @" X
Frame rate : 23.976 FPS6 l9 Z, V; b. T! M2 \9 h% R
Color space : YUV5 y0 K( ^. {: Z0 `" D
Chroma subsampling : 4:2:07 {+ l* F; f  Q" u; X' }. w) p/ g
Bit depth : 10 bits# n% S, @! x) C  r+ f
Bits/(Pixel*Frame) : 0.060
/ k1 Z: Y  w1 w5 O+ bStream size : 7.07 GiB (97%): p; i# V% u! ]& u
Default : Yes8 g" B8 S, H# C7 y; `" w
Forced : No$ e9 P5 y/ D( e5 h
Color range : Limited5 z7 v3 D. P1 k" W% |1 q
Color primaries : BT.709* h6 a4 H- x; s! b
Transfer characteristics : BT.709
; l% k" m- L+ [0 c) Z8 q4 KMatrix coefficients : BT.7094 ]5 S& ]; W8 z2 v1 p; r6 ]+ X/ b
! J6 q9 [8 {$ i; ~5 l" l

( D) n9 M, Q* J2 ^, n1 o, D; _% D6 l+ qAudio# w" W# J) V5 _# S  e# u, S
ID : 28 d. \; `4 }0 N0 F
Format : AC-3
5 y( R" K2 ]! h+ ^+ Z# r2 Z' q6 Z# q$ @6 kFormat/Info : Audio Coding 38 q/ {8 f) T$ K7 B# e1 C
Commercial name : Dolby Digital
7 B, S6 X3 ?% S$ }Codec ID : A_AC35 \8 x$ o% D9 `( f7 D. Q1 ]9 G
Duration : 1 h 25 min
' `# l9 v5 ^" m1 f1 g+ s$ LBit rate mode : Constant+ V" f* P! d) ^0 Z$ j
Bit rate : 384 kb/s$ _9 J/ l- J. k) F0 ^9 j
Channel(s) : 6 channels+ I' i% d& J3 i/ a5 x; ^2 r7 M
Channel layout : L R C LFE Ls Rs
& Q! g$ `0 C) k( H* U) R& [Sampling rate : 48.0 kHz
( P, a1 H+ p% s1 _* F* JFrame rate : 31.250 FPS (1536 SPF)
; w( _, p" T) j7 F5 V% Z- ]5 hCompression mode : Lossy) z, ?6 O1 D8 r0 ?; L2 s7 F
Stream size : 234 MiB (3%)5 [+ I7 t! s" k5 O
Title : English# o" ^% V# v& D) {9 m: Q% P, K7 Q
Language : English$ E$ ^' G; y& [
Service kind : Complete Main6 \2 y: R  F, P8 R8 v
Default : No
# I- ]! \" V! U: vForced : No
8 Q4 j3 o" m6 L) j' m2 ^4 ]$ S8 C1 G' k6 i8 ~/ g

3 {9 F- a# R( z8 U# l) P0 M1 GText
9 Q6 Q* j: g5 C6 oID : 38 y! r, p* B* p; R. W" U
Format : UTF-8
# R- [+ d* Y) F& ^2 u( ?3 dCodec ID : S_TEXT/UTF8
4 v* i+ h2 ?( o4 qCodec ID/Info : UTF-8 Plain Text) F/ H# z  |, u5 O2 O5 q. b
Duration : 1 h 16 min* P& r, T) E5 b- z, {" n
Bit rate : 64 b/s
0 h: |. D- C* j$ wCount of elements : 1118
) o7 c9 n4 _- S" b- Y. ]Stream size : 36.4 KiB (0%)$ M4 w2 G6 z% M
Language : English
" Q8 x7 o$ B5 s" ?* X& LDefault : Yes
9 C8 c5 ^" m% r0 k/ I& ~Forced : No
5 F! @& b+ k; R1 W
" M+ R! C* e: A6 p2 j8 C
蓝光高清网提示您 点击下方附件名称 即可开始下载" }, v4 F5 z; Y' |9 d: I1 A
( z: P3 r3 z7 q/ `7 w- {4 Z5 k
$ K& H2 P' V8 d" s1 z
丧尸崛起4K.The.Amityville.Uprising.2022.2160p.WEB-DL.x265.10bit.SDR.DD5.1-4K电影下载
7 q0 A) R, J/ t3 K( K4 O. M# u. W# Y7 |  d$ P  `
丧尸崛起4K.The.Amityville.Uprising.2022.2160p.WEB-DL.x265.10bit.SDR.DD5.1【7.3 GB】# Q; X- C+ x2 m0 k$ m. x  U& t
丧尸崛起4K.The.Amityville.Uprising.2022.2160p.WEB-DL.x265.10bit.SDR.DD5.1-NOGRP.torrent (18.91 KB)
加入蓝光高清网VIP会员  无限制下载本站所有资源---点这里

资源下载、资源播放、字幕使用、无法下载等常见问题---点这里
回复

使用道具 举报

全部回复1

ggang1 发表于 2022-1-13 13:17:10

ggang1 沙发

2022-1-13 13:17:10

好  不错的资源
回复 支持 反对

使用道具 举报

发表回复

您需要登录后才可以回帖 登录 | 立即注册

返回列表 本版积分规则

  • 发帖

  • 在线客服

  • 微信

  • 客户端

  • 返回顶部